ML
     
  Уважаемый Гость!
Вы можете поддержать проект и зарегистрироваться у наших партнеров - онлайн-стратегия MyLands. При регистрации в игре Вы получите код, который сможете активировать после регистрации на pirat.ca и получить 1000 дублонов.

Ваш код:
193c38d0130f05c24de871678ea3ac181461757d
 
     

Проповедник / Preacher / Сезон: 1 / Серии: 10 из 10 (Эван Голдберг / Evan Goldberg) [2016 г., фэнтези, драма, детектив, приключения, WEB-DLRip] MVO (Jaskier) + Original (Eng)

Ответить на тему
 
Автор
Сообщение

Пост 01-Окт-2016 07:49

[Q] 

somik

Легенда

-Проповедник / Preacher-- Производство: США, AMC Studios
Жанр: фэнтези, драма, детектив, приключения
Год выпуска: 2016 г.
Продолжительность: 00:45:00
Мировая премьера: 14 марта 2016
Перевод: Профессиональный (многоголосый, закадровый) [Jaskier]
Оригинальный аудиопоток: английский
Режиссер: Эван Голдберг / Evan Goldberg-В ролях: Доминик Купер, Том Брук, У. Эрл Браун, Йен Коллетти, Джозеф Гилган, Люси Гриффитс, Джеки Эрл Хейли, Рут Негга, Дерек Уилсон, Анатол Юсеф-Описание: Священник Джесси Кастер по воле случая стал носителем внутри своего естества странного существа по имени Генезис. Это дитя совокупления ангела и демона представляет собой одновременно чистый идеал и квинтэссенцию света, но также сгусток абсолютного зла. Генезис — единственное существо во Вселенной, которое может встать вровень с Богом, если того пожелает, а его носитель автоматически становится самым могущественным существом в материальном мире. И это проповедник Кастер.-
Качество видео: WEB-DLRip
Контейнер: AVI
Видео кодек: XviD
Аудио кодек: MP3
Видео: 720x400 (1.80:1), 23.976 fps, XviD build 73, 1457 kbps avg, 0.21 bit/pixel
Аудио: 48 kHz, MPEG Layer 3, 2 ch, 128.00 kbps avg
Аудио #2: 48 kHz, MPEG Layer 3, 2 ch, 128.00 kbps avg
Cубтитры: отсутствуют
«Проповедник: Отложите библию в сторону»
Сет Роген, сценарист, комик, веселый парень и самое главное — большой фанат комиксов. Но не тех комиксов, о которых вы подумали, а наоборот, являющих собой антипод стандартным графическим новеллам, повествующих про схватки банальных воинов в трико. Роген, собрав команду таких же фанатов, как и он, подключил все свои связи в Голливуде, чтобы выбить финансирование на сериал по комиксу Гарта Энниса, «Проповедник».
Жестокая графическая новелла, выходившая с 1995 года по 2000-ый, завоевала огромную фанатскую любовь. Было в этом гиперболизированном насилии нечто привлекательное, захватывающее дух, сравнимое по стилистическому содержанию с фильмами Квентина Тарантино. Был герой, залегший на дно и трудящийся проповедником в захолустной церкви, были интересные компаньоны и запоминающиеся антагонисты. Сериал умело перенял все эти особенности, постепенно добавляя собственные наработки и неудивительно, ведь сюжет из комиксовых девяностых перенесен в наше время! Даже не смотря на то, что городок Эннвиль в Техасе та еще деревня, прогресс не стоит на месте, урбанизируя все на своем пути.
Герои в сериале, словно сошли со страниц комикса, радуя фанатов идеальным кастом, а ценителей актерской игры восхитительной работой над образами. Главный герой, Проповедник Джесси Кастер (Доминик Купер), не выходит за рамки каноничности, сохраняя полный флегматичной боли взгляд. Вампир Кэссиди, исполненный Джозефом Гилганом, колоритен и крут. Не скрою, были сомнения по поводу профпригодности Гилгана, в виду его клоунских кривляний в сериале «Отбросы». Однако пилот «Проповедника», ясно дал понять — он рожден для роли вечно веселого вампира, ставшего безумным на фоне постоянной охоты праведников с осиновыми кольями.
Итог. Атмосферный, сжимающий мошонку стальной рукой зубодробительного экшна. Здесь колорит Дикого Запада, откровенная сатира современного общества и пропаганда стиля жизни, вышедшего из моды: Виски, драки, женщины, расстроенная гитара исполняющая знакомые кантри мотивы… Что еще нужно для счастья?
10 из 10
Общее
Полное имя : F:\Проповедник\Preacher.S01.2016.Jaskier.[pirat.ca]\Preacher.S01E01.WEB-DLRip.Jaskier.avi
Формат : AVI
Формат/Информация : Audio Video Interleave
Размер файла : 800 Мбайт
Продолжительность : 1 ч. 4 м.
Общий поток : 1727 Кбит/сек
Программа кодирования : VirtualDubMod 1.5.10.3 | www.virtualdub-fr.org || (build 2550/release)
Библиотека кодирования : VirtualDubMod build 2550/release
Видео
Идентификатор : 0
Формат : MPEG-4 Visual
Профиль формата : Advanced [email protected]
Параметр BVOP формата : 1
Параметр QPel формата : Нет
Параметр GMC формата : Без точки перехода
Параметр матрицы формата : Default (MPEG)
Идентификатор кодека : XVID
Идентификатор кодека/Подсказка : XviD
Продолжительность : 1 ч. 4 м.
Битрейт : 1457 Кбит/сек
Ширина : 720 пикселей
Высота : 400 пикселей
Соотношение сторон : 16:9
Частота кадров : 23,976 (23976/1000) кадра/сек
Цветовое пространство : YUV
Субдискретизация насыщенности : 4:2:0
Битовая глубина : 8 бит
Тип развёртки : Прогрессивная
Метод сжатия : С потерями
Бит/(Пиксели*Кадры) : 0.211
Размер потока : 675 Мбайт (84%)
Библиотека кодирования : XviD 73
Аудио #1
Идентификатор : 1
Формат : MPEG Audio
Версия формата : Version 1
Профиль формата : Layer 3
Режим : Joint stereo
Расширение режима : MS Stereo
Идентификатор кодека : 55
Идентификатор кодека/Подсказка : MP3
Продолжительность : 1 ч. 4 м.
Вид битрейта : Постоянный
Битрейт : 128 Кбит/сек
Каналы : 2 канала
Частота : 48,0 КГц
Метод сжатия : С потерями
Размер потока : 59,3 Мбайт (7%)
Выравнивание : Соединение по промежуткам
Продолжительность промежутка : 42 мс. (1,00 видеокадр)
Время предзагрузки промежутка : 504 мс.
Аудио #2
Идентификатор : 2
Формат : MPEG Audio
Версия формата : Version 1
Профиль формата : Layer 3
Режим : Joint stereo
Расширение режима : MS Stereo
Идентификатор кодека : 55
Идентификатор кодека/Подсказка : MP3
Продолжительность : 1 ч. 4 м.
Вид битрейта : Постоянный
Битрейт : 128 Кбит/сек
Каналы : 2 канала
Частота : 48,0 КГц
Метод сжатия : С потерями
Размер потока : 59,3 Мбайт (7%)
Выравнивание : Соединение по промежуткам
Продолжительность промежутка : 42 мс. (1,00 видеокадр)
Время предзагрузки промежутка : 504 мс.
Download / Скачать

Хотите скачать бесплатно? Зарегистрируйтесь на сайте (ссылка на регистрацию). Pirat.ca - самый быстрый торрент трекер в рунете!

Как скачивать  ·   Что такое торрент  ·   Рейтинг и ограничения

Пост 02-Окт-2016 10:58 (спустя 1 день 3 часа)

Топик был перенесен из форума Зарубежные сериалы (Трюм) в форум Зарубежные сериалы
erchine
 
Показать сообщения:    
Ответить на тему

Текущее время: Сегодня 18:06

Часовой пояс: GMT + 4



Вы не можете начинать темы
Вы не можете отвечать на сообщения
Вы не можете редактировать свои сообщения
Вы не можете удалять свои сообщения
Вы не можете голосовать в опросах
Вы не можете прикреплять файлы к сообщениям
Вы не можете скачивать файлы

▼ Вниз