ML
     
  Уважаемый Гость!
Вы можете поддержать проект и зарегистрироваться у наших партнеров - онлайн-стратегия MyLands. При регистрации в игре Вы получите код, который сможете активировать после регистрации на pirat.ca и получить 1000 дублонов.

Ваш код:
47bfc18b89c74e4ae0d974e9b6943639e2bff08e
 
     

Олимп / Olympus / Сезон: 1 / Серии: 13 из 13 (Аманда Таппинг / Amanda Tapping, ...) [2015 г., фэнтези, HDTVRip] MVO (Jaskier) + Original (Eng)

Ответить на тему
 
Автор
Сообщение

Пост 03-Окт-2016 08:06

[Q] 

somik

Легенда

-Олимп / Olympus-- Производство: Великобритания, Канада
Жанр: фэнтези
Год выпуска: 2015 г.
Продолжительность: 00:42:40
Мировая премьера: 2 апреля 2015
Перевод: Профессиональный (многоголосый, закадровый) [Jaskier]
Оригинальный аудиопоток: английский
Режиссер: Аманда Таппинг / Amanda Tapping, ...-В ролях: Сонита Генри, Уэйн Барнс, Грэхэм Шилз, Кэс Анвар, Мэтт Фрюэр, Джон Эммет Трэйси, Софиа Локлин Херт, Леви Миден, Дэвид Франко, Полин Иган-Описание: Несколько храбрых мужчин и женщин изгнали богов в потусторонний мир — место, названное Подземным Миром или Царством Аида. В 2015 г. до нашей эры один неопытный молодой человек отправляется спасать оракула храма Геи. Ему предстоит испытать любовь, предательство, разочарование и изгнание. Пройдя тяжелый путь, он превращается в безжалостного лидера, чету самим богам.-
Качество видео: HDTVRip
Контейнер: AVI
Видео кодек: XviD
Аудио кодек: AC3
Видео: 720x400 (1.80:1), 23.976 fps, XviD build 50 ~1491 kbps avg, 0.22 bit/pixel
Аудио: 48 kHz, AC3 Dolby Digital, 3/2 (L,C,R,l,r) + LFE ch, ~384 kbps
Аудио #2: 48 kHz, MPEG Layer 3, 2 ch, ~192.00 kbps avg
Cубтитры: отсутствуют
Тысячи путей ведут к заблуждению, к истине — только один. Жан-Жак Руссо
Кто в детстве не читал легендарную книгу времен и народов «Легенды и мифы Древней Греции»? Одно поколение сменяется другим, появляются новые города, ученые продолжают делать открытия, а человек не устает задавать себе вопрос: «А были боги?» Сериал «Олимп» — непредсказуем, каждая серия как страница увлекательной книги несет за собой еще больше загадки и заставляет зрителя с нетерпением ждать продолжения.
Сериал вышел на славу. Главные герои яркие и неповторимые личности. Красивая девушка Оракул — изобретательна и умна, Герой — мужествен и противоречив, до конца не ясно положительный он или отрицательный персонаж. Безумный ученый дедал — гений своего времени. А Медея не перестает удивлять своей хитростью и изворотливостью.
Ниточка судьба соединяет четырех непохожих людей, которые должны вместе добраться до Олимпа. Зритель не знает, что ожидает каждого из них. На их пути встанут тени прошлого, боги окажутся не такими какие они их представляли, а сам Олимп — это извечная борьба добра со злом.
В сериале перед зрителем предстают три силы, которые правят в нашем необъятном мире: магия, наука и религия. Кто же победит? Никто не знает. Конец первого сезона оставляет много вопросов. Герои сериала, как и каждый здравомыслящий человек ищут истину. Об этом М. Нордау однажды сказал:" В стремлении к истине главная суть заключается не в том, чтобы найти ее, а в том, чтобы искать».
Общее
Полное имя : J:\ОЛИМП\OLIMP.s01.2015.Jaskier.HDTVRip.[pirat.ca]\OLIMP.s01e01.Jaskier.HDTVRip.avi
Формат : AVI
Формат/Информация : Audio Video Interleave
Размер файла : 640 Мбайт
Продолжительность : 42 м.
Общий поток : 2083 Кбит/сек
Программа кодирования : VirtualDubMod 1.5.10.2 (build 2540/release)
Библиотека кодирования : VirtualDubMod build 2540/release
Видео
Идентификатор : 0
Формат : MPEG-4 Visual
Профиль формата : Advanced [email protected]
Параметр BVOP формата : 2
Параметр QPel формата : Нет
Параметр GMC формата : Без точки перехода
Параметр матрицы формата : Default (H.263)
Идентификатор кодека : XVID
Идентификатор кодека/Подсказка : XviD
Продолжительность : 42 м.
Битрейт : 1493 Кбит/сек
Ширина : 720 пикселей
Высота : 400 пикселей
Соотношение сторон : 16:9
Частота кадров : 23,976 (24000/1001) кадра/сек
Цветовое пространство : YUV
Субдискретизация насыщенности : 4:2:0
Битовая глубина : 8 бит
Тип развёртки : Прогрессивная
Метод сжатия : С потерями
Бит/(Пиксели*Кадры) : 0.216
Размер потока : 459 Мбайт (72%)
Библиотека кодирования : XviD 1.2.1 (UTC 2008-12-04)
Аудио #1
Идентификатор : 1
Формат : AC-3
Формат/Информация : Audio Coding 3
Расширение режима : CM (complete main)
Параметр Endianness формата : Big
Идентификатор кодека : 2000
Продолжительность : 42 м.
Вид битрейта : Постоянный
Битрейт : 384 Кбит/сек
Каналы : 6 каналов
Расположение каналов : Front: L C R, Side: L R, LFE
Частота : 48,0 КГц
Частота кадров : 31,250 кадров/сек (1536 spf)
Метод сжатия : С потерями
Размер потока : 118 Мбайт (18%)
Выравнивание : Разделение по промежуткам
Продолжительность промежутка : 42 мс. (1,00 видеокадр)
Время предзагрузки промежутка : 500 мс.
Аудио #2
Идентификатор : 2
Формат : MPEG Audio
Версия формата : Version 1
Профиль формата : Layer 3
Режим : Joint stereo
Расширение режима : MS Stereo
Идентификатор кодека : 55
Идентификатор кодека/Подсказка : MP3
Продолжительность : 42 м.
Вид битрейта : Постоянный
Битрейт : 192 Кбит/сек
Каналы : 2 канала
Частота : 48,0 КГц
Метод сжатия : С потерями
Размер потока : 59,0 Мбайт (9%)
Выравнивание : Соединение по промежуткам
Продолжительность промежутка : 42 мс. (1,00 видеокадр)
Время предзагрузки промежутка : 504 мс.
Download / Скачать

Хотите скачать бесплатно? Зарегистрируйтесь на сайте (ссылка на регистрацию). Pirat.ca - самый быстрый торрент трекер в рунете!

Как скачивать  ·   Что такое торрент  ·   Рейтинг и ограничения

jofrei53

Корсар

Пост 04-Окт-2016 00:06 (спустя 15 часов)

[Q] 

Спасибо!!! Супер! Лови бочку
[Профиль]  [ЛС] 
Показать сообщения:    
Ответить на тему

Текущее время: Сегодня 07:03

Часовой пояс: GMT + 4



Вы не можете начинать темы
Вы не можете отвечать на сообщения
Вы не можете редактировать свои сообщения
Вы не можете удалять свои сообщения
Вы не можете голосовать в опросах
Вы не можете прикреплять файлы к сообщениям
Вы не можете скачивать файлы

▼ Вниз