ML
     
  Уважаемый Гость!
Вы можете поддержать проект и зарегистрироваться у наших партнеров - онлайн-стратегия MyLands. При регистрации в игре Вы получите код, который сможете активировать после регистрации на pirat.ca и получить 1000 дублонов.

Ваш код:
ca44e9295b9b8527ba1c339c20494f70782efea6
 
     

Стартап / StartUp / Сезон: 1 / Серии: 10 из 10 (Бен Кетаи / Ben Ketai) [2016 г., триллер, криминал, WEB-DLRip] MVO (Newstudio) + Original (Eng)

Ответить на тему
 
Автор
Сообщение

Пост 03-Окт-2016 17:32

[Q] 

somik

Легенда

-Стартап / StartUp-- Производство: США, Hollywood Gang Productions, Relativity Real, ...
Жанр: триллер, криминал
Год выпуска: 2016 г.
Продолжительность: 00:50:00
Мировая премьера: 6 сентября 2016
Перевод: Профессиональный (многоголосый, закадровый) [Newstudio]
Оригинальный аудиопоток: английский
Режиссер: Бен Кетаи / Ben Ketai-В ролях: Мартин Фриман, Адам Броди, Эди Гатеги, Кристен Ариза, Келвин Харрисон, Альфредо Де Куэсада, Джоселин Донахью-Описание: Нередко хорошая идея, существующая где-то в умах гениального конструктора или стратега не воплощается в реальность из-за того, что нет подходящих ресурсов для ее осуществления. Так и оказывается в этот раз. Cериал рассказывает о трех разных людях, занимающихся реализацией одной и той же идеи. Один из них Фил Раск, который является агентом ФБР. Он расследует преступления в мире финансов. Он знакомится с Ником Талмоном, молодым человеком, который является сыном одного из подозреваемых в ведущемся деле. Тут начинается разворачиваться нешуточная семейная драма, которая переплетается с расследованием.-
Качество видео: WEB-DLRip
Контейнер: AVI
Видео кодек: XviD
Аудио кодек: MP3
Видео: 720x400 (1.80:1), 23.976 fps, XviD MPEG-4 ~1487 kbps avg, 0.22 bit/pixel
Аудио: 48 kHz, MPEG Layer 3, 2 ch, ~128.00 kbps avg
Аудио #2: 48 kHz, MPEG Layer 3, 2 ch, ~128.00 kbps avg
Cубтитры: отсутствуют
Собственно, сериал я начал смотреть только из за Мартина Фримена, быть может оттого я был приятно удивлен, что ничего не ждал от проекта. Но обо всем по порядку.
Знаете, есть такой тип сериалов, которые начинаются вяленько, неспеша, и уже оценивая первую серию ты думаешь — «если следующая серия будет такой же, то, пожалуй, смотреть перестану». Но следующая серия становится лучше, другая еще лучше… Вот этот сериал именно из таких. Свой потенциал он окончательно раскрывает в середине сезона, после чего я просто сорвался и смотрел оставшиеся 5 серий залпом.
Задумка не то чтобы сверхоригинальна: криптовалюта, коды, хакеры… звучит скучно и заезженно, не находите? И ведь герои до поры до времени сами не знают на кой черт им это. Но сериал заставляет проникнуться, поверить каждому из персонажей, мотивирует их поступки, черт возьми, да я их полюбил, всех троих за эти 10 серий.
Единственный нюанс, как бы иронично это не было — персонаж Мартина Фримена. Да, история с ним интересная и несколько разбавляет основной сюжет сериала (напоминает чем-то его персонажа из сериала Фарго), но выглядит она как растягивание экранного времени, его влияние на сюжет примерно 3-4%. Быть может (надеюсь) сериал продлят и все изменится, но пока даже не знаю…
В целом впечатления положительные, примерно с таким же чувством переживания и интриги я следил за «Бешеными псами» вышедшими в начале года. Стартап уступает ему лишь в отсутствии пары-тройки неплохих шуток на серию.
8 из 10
Общее
Полное имя : F:\Стартап\StartUp.S01.2016.WEB-DLRip.NewStudio.[pirat.ca]\StartUp.S01E01.WEB-DLRip.RusEng.NewStudio.L.avi
Формат : AVI
Формат/Информация : Audio Video Interleave
Размер файла : 682 Мбайт
Продолжительность : 54 м.
Общий поток : 1759 Кбит/сек
Программа кодирования : VirtualDubMod 1.5.10.3 (build 2550/release)
Библиотека кодирования : VirtualDubMod build 2550/release
Видео
Идентификатор : 0
Формат : MPEG-4 Visual
Профиль формата : Advanced [email protected]
Параметр BVOP формата : 2
Параметр QPel формата : Да
Параметр GMC формата : Без точки перехода
Параметр матрицы формата : Default (MPEG)
Режим смешивания : Сжатый битовый поток
Идентификатор кодека : XVID
Идентификатор кодека/Подсказка : XviD
Продолжительность : 54 м.
Битрейт : 1489 Кбит/сек
Ширина : 720 пикселей
Высота : 400 пикселей
Соотношение сторон : 16:9
Частота кадров : 23,976 (23976/1000) кадра/сек
Цветовое пространство : YUV
Субдискретизация насыщенности : 4:2:0
Битовая глубина : 8 бит
Тип развёртки : Прогрессивная
Метод сжатия : С потерями
Бит/(Пиксели*Кадры) : 0.216
Размер потока : 577 Мбайт (85%)
Библиотека кодирования : XviD 73
Аудио #1
Идентификатор : 1
Формат : MPEG Audio
Версия формата : Version 1
Профиль формата : Layer 3
Режим : Joint stereo
Расширение режима : MS Stereo
Идентификатор кодека : 55
Идентификатор кодека/Подсказка : MP3
Продолжительность : 54 м.
Вид битрейта : Постоянный
Битрейт : 128 Кбит/сек
Каналы : 2 канала
Частота : 48,0 КГц
Метод сжатия : С потерями
Размер потока : 49,6 Мбайт (7%)
Выравнивание : Соединение по промежуткам
Продолжительность промежутка : 42 мс. (1,00 видеокадр)
Время предзагрузки промежутка : 504 мс.
Аудио #2
Идентификатор : 2
Формат : MPEG Audio
Версия формата : Version 1
Профиль формата : Layer 3
Режим : Joint stereo
Расширение режима : MS Stereo
Идентификатор кодека : 55
Идентификатор кодека/Подсказка : MP3
Продолжительность : 54 м.
Вид битрейта : Постоянный
Битрейт : 128 Кбит/сек
Каналы : 2 канала
Частота : 48,0 КГц
Метод сжатия : С потерями
Размер потока : 49,6 Мбайт (7%)
Выравнивание : Соединение по промежуткам
Продолжительность промежутка : 42 мс. (1,00 видеокадр)
Время предзагрузки промежутка : 504 мс.
Download / Скачать

Хотите скачать бесплатно? Зарегистрируйтесь на сайте (ссылка на регистрацию). Pirat.ca - самый быстрый торрент трекер в рунете!

Как скачивать  ·   Что такое торрент  ·   Рейтинг и ограничения

somik ®

Легенда

26634

Пост 03-Окт-2016 17:34 (спустя 1 минута)

[Q] 

Внимание: присутствует нецензурная лексика! Да и сам сериал тяжеловат, пошловат... aa На любителя

_________________
Всё когда-нибудь уже было... В интернете!
[Профиль]  [ЛС] 

jofrei53

Корсар

Пост 04-Окт-2016 00:03 (спустя 6 часов)

[Q] 

somik Спасибо! Заинтриговал....Или заинтересовал... Супер! Автору респект!!!
[Профиль]  [ЛС] 
Показать сообщения:    
Ответить на тему

Текущее время: Сегодня 16:17

Часовой пояс: GMT + 4



Вы не можете начинать темы
Вы не можете отвечать на сообщения
Вы не можете редактировать свои сообщения
Вы не можете удалять свои сообщения
Вы не можете голосовать в опросах
Вы не можете прикреплять файлы к сообщениям
Вы не можете скачивать файлы

▼ Вниз