ML
     
  Уважаемый Гость!
Вы можете поддержать проект и зарегистрироваться у наших партнеров - онлайн-стратегия MyLands. При регистрации в игре Вы получите код, который сможете активировать после регистрации на pirat.ca и получить 1000 дублонов.

Ваш код:
cc3be08b7507661c03e0a2f582d0da3a659ea55a
 
     

Дневники вампира / The Vampire Diaries (Сезон: 1 / Серии: 1-22 из 22) (Маркос Сига\Marcos Siega) [2009 г., ужасы, фэнтези, драма, мелодрама, HDRip] MVO (LostFilm)

Ответить на тему
 
Автор
Сообщение

Пост 02-Фев-2012 18:17

[Q] 

Юлия19

Морской Волк

Дневники вампира / The Vampire Diaries
(Сезон: 1 / Серии: 1-22 из 22)
Год выпуска: 2009
Мировая премьера: 10 сентября 2009
Российская премьера: 16 августа 2010
Производство: США
Жанр: ужасы, фэнтези, драма, мелодрама
Продолжительность серии: 00:43:00
Перевод: Профессиональный (многоголосый, закадровый) [LostFilm]
Субтитры: отсутствуют
Режиссер: Маркос Сига\Marcos Siega
В ролях
Нина Добрев, Пол Уэсли, Иен Сомерхолдер, Стивен Р. МакКуин, Катерина Грэхэм, Кэндис Аккола, Зак Рериг, Майкл Тревино, Мэттью Дэвис, Сара Каннинг
Описание
Прошло всего четыре месяца после трагической аварии, в которой погибли их родители, и 17-летняя Елена Гилберт и ее 15-летний брат Джереми все еще пытаются оправиться от потери и вернуться к нормальной жизни. Елена всегда была отличной ученицей, красивой и популярной девушкой в школе, но теперь ей очень тяжело скрывать свою печаль от внешнего мира. В начале учебного года внимание Елены и ее друзей привлекает новый ученик, загадочный и красивый Стефан Сальваторе.
Стефан и Елена тут же чувствуют взаимную симпатию, но Елена даже не подозревает, что Стефан — вампир, которому уже сотни лет, и который старается мирно жить среди людей, несмотря на то, что его брат, Дэймон — воплощение вампирской жестокости и кровожадности. Теперь два брата-вампира — один добрый, другой злой — ведут борьбу за души Елены, ее друзей и других жителей городка Мистик Фоллз.
IMDB , КиноПоиск
Источник/Качество: HDRip
Формат: AVI
Видео кодек: XviD
Аудио кодек: MP3
Видео: 1143Кбит\сек,624:352(16:9),в 23,976кадра\сек,Mpeg-4 Visual (XviD)
Аудио: 128 Kbps 48.0 KHz 2 channels MPEG Audio
Общее
Полное имя : F:\Дневники вампира\1 сезон\The.Vampire.Diaries.S01E01.rus.LostFilm.TV.avi
Формат : AVI
Формат/Информация : Audio Video Interleave
Размер файла : 391 Мбайт
Продолжительность : 42 м.
Общий поток : 1284 Кбит/сек
Программа кодирования : Nandub v1.0rc2
Библиотека кодирования : Nandub build 1853/release
Видео
Идентификатор : 0
Формат : MPEG-4 Visual
Профиль формата : Advanced [email protected]
Параметр BVOP формата : 1
Параметр QPel формата : Нет
Параметр GMC формата : Без точки перехода
Параметр матрицы формата : Выборочная
Идентификатор кодека : XVID
Идентификатор кодека/Подсказка : XviD
Продолжительность : 42 м.
Битрейт : 1143 Кбит/сек
Ширина : 624 пикселя
Высота : 352 пикселя
Соотношение сторон : 16:9
Частота кадров : 23,976 кадра/сек
Цветовое пространство : YUV
Субдискретизация насыщенности : 4:2:0
Битовая глубина : 8 бит
Тип развёртки : Прогрессивная
Метод сжатия : С потерями
Бит/(Пиксели*Кадры) : 0.217
Размер потока : 349 Мбайт (89%)
Библиотека кодирования : XviD 1.2.1 (UTC 2008-12-04)
Аудио
Идентификатор : 1
Формат : MPEG Audio
Версия формата : Version 1
Профиль формата : Layer 3
Режим : Joint stereo
Расширение режима : MS Stereo
Идентификатор кодека : 55
Идентификатор кодека/Подсказка : MP3
Продолжительность : 42 м.
Вид битрейта : Постоянный
Битрейт : 128 Кбит/сек
Каналы : 2 канала
Частота : 48,0 КГц
Метод сжатия : С потерями
Размер потока : 39,0 Мбайт (10%)
Выравнивание : Соединение по промежуткам
Продолжительность промежутка : 24 мс. (0,58 видеокадр)
Время предзагрузки промежутка : 480 мс.
Download / Скачать

Хотите скачать бесплатно? Зарегистрируйтесь на сайте (ссылка на регистрацию). Pirat.ca - самый быстрый торрент трекер в рунете!

Как скачивать  ·   Что такое торрент  ·   Рейтинг и ограничения



Последний раз редактировалось: Юлия19 (2012-02-03 13:26), всего редактировалось 1 раз

Пост 02-Фев-2012 18:44 (спустя 27 минут)

Топик был перенесен из форума Сериалы в форум Зарубежные сериалы

gEmOkPaT
 

gEmOkPaT

1423

Пост 03-Фев-2012 09:44 (спустя 15 часов)

[Q] 

Юлия19, переименуйте и перезалейте торрент файл (вчера не заметил)

_________________
[Профиль]  [ЛС] 

Юлия19 ®

Морской Волк

375

Пост 03-Фев-2012 13:43 (спустя 3 часа)

[Q] 

Иссправила)))
[Профиль]  [ЛС] 

igoryn56

Штурман

Пост 06-Фев-2013 15:32 (спустя 1 год)

[Q] 

Раздачи Ктонибудь!!!!!
[Профиль]  [ЛС] 

taganrog

Штурман

Пост 16-Дек-2013 08:31 (спустя 10 месяцев 9 дней)

[Q] 

если раздача умерла, надо хотя-бы в коментах писать!!!
[Профиль]  [ЛС] 

Jekki

Шкипер

38

Пост 02-Ноя-2015 10:06 (спустя 1 год 10 месяцев)

[Q] 

Встаньте на раздачу!
[Профиль]  [ЛС] 
Показать сообщения:    
Ответить на тему

Текущее время: Сегодня 05:05

Часовой пояс: GMT + 4



Вы не можете начинать темы
Вы не можете отвечать на сообщения
Вы не можете редактировать свои сообщения
Вы не можете удалять свои сообщения
Вы не можете голосовать в опросах
Вы не можете прикреплять файлы к сообщениям
Вы не можете скачивать файлы

▼ Вниз