ML
     
  Уважаемый Гость!
Вы можете поддержать проект и зарегистрироваться у наших партнеров - онлайн-стратегия MyLands. При регистрации в игре Вы получите код, который сможете активировать после регистрации на pirat.ca и получить 1000 дублонов.

Ваш код:
fcd618d94adc1456bccbde5047c9cd0930e4ae4d
 
     

Легенды завтрашнего дня / DC's Legends of Tomorrow / Сезон: 1 / Серии: 16 из 16 (Дермотт Даунс / Dermott Downs, ...) [2016 г., фантастика, боевик, драма, приключения, HDTV, 720p] MVO (Jaskier) + Original (Eng)

Ответить на тему
 
Автор
Сообщение

Пост 03-Окт-2016 21:12

[Q] 

somik

Легенда

-Легенды завтрашнего дня / DC's Legends of Tomorrow-- Производство: США, Warner Bros. Television,
Жанр: фантастика, боевик, драма, приключения
Год выпуска: 2016 г.
Продолжительность: 00:42:20
Мировая премьера: 21 января 2016
Перевод: Профессиональный (многоголосый, закадровый) [Jaskier]
Оригинальный аудиопоток: английский
Режиссер: Дермотт Даунс / Dermott Downs, ...-В ролях: Виктор Гарбер, Брэндон Рут, Кейти Лотц, Стивен Амелл, Кэти Кэссиди, Грант Гастин, Артур Дарвилл, Сиара Рене, Франц Драмех, Доминик Пёрселл, Вентворт Миллер, Каспер Крамп, Фальк Хеншел-Описание: Увидев будущее, которого обязательно нужно избежать, Рип Хантер, путешественник во времени, собирает команду из героев и злодеев, чтобы противостоять смертельной угрозе. На кону стоит не только наша планета, но и все время в целом. Сможет ли эта команда победить бессмертное зло, абсолютно непохожее на то, что они видели раньше?-
Качество видео: HDTV
Контейнер: MKV
Стандарт разрешения: 720p
Видео кодек: MPEG4 AVC
Аудио кодек: AC3
Видео: 1280x720 (16:9), 23.976 fps, ~3500 kbps, 0.159bit/pixel
Аудио: Dolby AC3, 48 kHz, stereo, 192 kbps
Аудио #2: Dolby AC3, 48 kHz, 6 ch, 384 kbps
Cубтитры: отсутствуют
Венворт Миллер и Доминик Перселл снимались вместе в главных ролях в сериале Побег.
Положительная рецензия.
Перед просмотром зашёл почитать отзывы, прочёл и не обрадовался. Через пару дней решил, для уверенности, посмотреть, хотя бы на промотке, одну серию и затянуло.
Сериал, прежде всего, для фанатов вселенной DS, для тех кто смотрел/смотрит Стрелу, Флэша, для тех кто в душе всё ещё не повзрослел. Отмечу, что мне стрела разонравился/так и не смог понравится после 7-8 серии первого же сезона, а вот Флеш зацепил с первой же серии и новые серии я жду с нетерпением.
Легенды Завтрашнего Дня — история с множеством главных персонажей, настоящая командная игра, никто не тянет одеяло на себя и это чувство командной игры культивируется в самом сюжете. Командный дух крепчает, персонажи учатся действовать вместе, а история Мика Рори оОочень удивила и порадовала. Это история с предысториями — тут вам и Ра`с аль Гул, и подробности становления всех персонажей.
Сериал, определённо, рассчитан на фанатов и судить его строго не имеет смысла. Если нравится — то нравится, а нет — так нет. Это как споры про жизнеспособность Сверхъестественного — если ты фанат, то смотришь и тебе всё нравится, если перестал смотреть после 9-го сезона, то, наверное не сильно нравилось.
Скажем так. если трейлер вас зацепил, если вы узнали персонажей — смотрите и вам, вероятно, понравится и вы откроете для себя отличный сериал.
P.S. Из минусов отмечу только Рипа Хантера — переигрывает актёр в самом начале со своим пафосным явлением и пару раз бесит в последующих сериях, но уже не критично.
Общее
Уникальный идентификатор : 251360773507515282546655681825554151994 (0xBD1A52F538155796AF9C2405545DBA3A)
Полное имя : F:\Легенды завтрашнего дня\Legends of Tommorow. S01.HDTVRip.720p.Jaskier.[pirat.ca]\DCs.Legends.of.Tomorrow.S01E01.720p.HDTV.X264-JASKiER.mkv
Формат : Matroska
Версия формата : Version 1
Размер файла : 1,29 Гбайт
Продолжительность : 44 м.
Общий поток : 4151 Кбит/сек
Дата кодирования : UTC 2016-01-24 19:14:45
Программа кодирования : mkvmerge v2.3.0 ('Freak U') built on Sep 8 2008 18:32:16
Библиотека кодирования : libebml v0.7.7 + libmatroska v0.8.1
Видео
Идентификатор : 1
Формат : AVC
Формат/Информация : Advanced Video Codec
Профиль формата : [email protected]
Параметр CABAC формата : Да
Параметр ReFrames формата : 8 кадров
Идентификатор кодека : V_MPEG4/ISO/AVC
Продолжительность : 44 м.
Битрейт : 3493 Кбит/сек
Ширина : 1280 пикселей
Высота : 720 пикселей
Соотношение сторон : 16:9
Режим частоты кадров : Постоянный
Частота кадров : 23,976 (24000/1001) кадра/сек
Цветовое пространство : YUV
Субдискретизация насыщенности : 4:2:0
Битовая глубина : 8 бит
Тип развёртки : Прогрессивная
Бит/(Пиксели*Кадры) : 0.158
Размер потока : 1,08 Гбайт (84%)
Библиотека кодирования : x264 core 148 r2638 7599210
Настройки программы : cabac=1 / ref=8 / deblock=1:-2:-2 / analyse=0x3:0x113 / me=umh / subme=9 / psy=1 / psy_rd=1.00:0.00 / mixed_ref=1 / me_range=24 / chroma_me=1 / trellis=2 / 8x8dct=1 / cqm=0 / deadzone=21,11 / fast_pskip=0 / chroma_qp_offset=-2 / threads=18 / lookahead_threads=2 / sliced_threads=0 / nr=0 / decimate=1 / interlaced=0 / bluray_compat=0 / constrained_intra=0 / bframes=5 / b_pyramid=2 / b_adapt=2 / b_bias=0 / direct=3 / weightb=1 / open_gop=0 / weightp=2 / keyint=250 / keyint_min=23 / scenecut=40 / intra_refresh=0 / rc_lookahead=50 / rc=crf / mbtree=1 / crf=18.0 / qcomp=0.60 / qpmin=0 / qpmax=69 / qpstep=4 / ip_ratio=1.40 / aq=1:1.00
Язык : English
Default : Да
Forced : Нет
Аудио #1
Идентификатор : 2
Формат : AC-3
Формат/Информация : Audio Coding 3
Расширение режима : CM (complete main)
Параметр Endianness формата : Big
Идентификатор кодека : A_AC3
Продолжительность : 44 м.
Вид битрейта : Постоянный
Битрейт : 192 Кбит/сек
Каналы : 2 канала
Расположение каналов : Front: L R
Частота : 48,0 КГц
Частота кадров : 31,250 кадров/сек (1536 spf)
Метод сжатия : С потерями
Размер потока : 61,0 Мбайт (5%)
Язык : Russian
Default : Да
Forced : Нет
Аудио #2
Идентификатор : 3
Формат : AC-3
Формат/Информация : Audio Coding 3
Расширение режима : CM (complete main)
Параметр Endianness формата : Big
Идентификатор кодека : A_AC3
Продолжительность : 44 м.
Вид битрейта : Постоянный
Битрейт : 384 Кбит/сек
Каналы : 6 каналов
Расположение каналов : Front: L C R, Side: L R, LFE
Частота : 48,0 КГц
Частота кадров : 31,250 кадров/сек (1536 spf)
Метод сжатия : С потерями
Размер потока : 122 Мбайт (9%)
Default : Нет
Forced : Нет
Download / Скачать

Хотите скачать бесплатно? Зарегистрируйтесь на сайте (ссылка на регистрацию). Pirat.ca - самый быстрый торрент трекер в рунете!

Как скачивать  ·   Что такое торрент  ·   Рейтинг и ограничения

Показать сообщения:    
Ответить на тему

Текущее время: Сегодня 12:50

Часовой пояс: GMT + 4



Вы не можете начинать темы
Вы не можете отвечать на сообщения
Вы не можете редактировать свои сообщения
Вы не можете удалять свои сообщения
Вы не можете голосовать в опросах
Вы не можете прикреплять файлы к сообщениям
Вы не можете скачивать файлы

▼ Вниз