ML
     
  Уважаемый Гость!
Вы можете поддержать проект и зарегистрироваться у наших партнеров - онлайн-стратегия MyLands. При регистрации в игре Вы получите код, который сможете активировать после регистрации на pirat.ca и получить 1000 дублонов.

Ваш код:
0fcd44bd35319f69313aa6e53b31c51cbff1c942
 
     

Дюна / Dune / Сезон: 1 / Серии: 3 из 3 (Джон Харрисон / John Harrison) [2000 г., фантастика, фэнтези, драма, приключения, BDRip] MVO

Ответить на тему
 
Автор
Сообщение

Пост 07-Окт-2016 11:47

[Q] 

somik

Легенда

-Дюна / Dune-- Производство: США, Канада, Германия, Италия, Milk & Honey Pictures, Evision, New Amsterdam Entertainment, ...
Жанр: фантастика, фэнтези, драма, приключения
Год выпуска: 2000 г.
Продолжительность: 01:36:00
Мировая премьера: 3 декабря 2000
Дата выхода DVD: 13 июля 2001, «Columbia/Sony»
Перевод: Профессиональный (многоголосый, закадровый) [с DVD]
Режиссер: Джон Харрисон / John Harrison-В ролях: Уильям Хёрт, Алек Ньюман, Саския Ривз, П.Х. Мориарти, Иэн МакНис, Мэтт Кислар, Ласло И. Киш, Джанкарло Джаннини, Джули Кокс, Уве Оксенкнехт, Джеймс Уотсон, Роберт Расселл, Лаура Бертон, Жан Унгер, Мирослав Таборски, Барбора Кодетова, Карел Добры, Сюзанна Гейслерова, Джейкоб Шварц, Клотильда Ле Гранд, Филип Ленковски-Описание: Арракис… Дюна… Бесплодная пустыня Империи и самая ценная планета в космосе. Поскольку здесь и только здесь была открыта специя. Без нее в Империи не будет торговли. Не будет цивилизации. Арракис… Дюна… родина специи. Величайшее сокровище Вселенной. Тот кто владеет ею, владеет судьбой.-
Качество видео: BDRip
Контейнер: AVI
Видео кодек: XviD
Аудио кодек: AC3
Видео: 720x400 (1.80:1), 24.000 fps, XviD build 47 ~1715 kbps avg, 0.25 bit/pixel
Аудио: 48 kHz, AC3 Dolby Digital, 3/2 (L,C,R,l,r) + LFE ch, ~448 kbps
Cубтитры: отсутствуют
Фильм снимался в нескольких странах, в том числе — в столице Чехии — Праге, в Риме и в Тунисе.
В роли сестры Муад’Диба Алии Атрейдис снималась Лаура Бертон, но за все время съемки она росла так быстро, что заказанные для нее фиолетовые контактные линзы уже не подходили, так что ближе к финалу, она снималась без них.
Этот мини-телесериал из трех частей был снят по одноименному роману Фрэнка Херберта.
Сериал демонстрировался в декабре 2000 года на американском телеканале «Sci-Fi Channel» под названием «Дюна» Фрэнка Херберта».
Для создания эффекта ярко-фиолетовых глаз использовались специальные контактные линзы, а также особый световой фильтр на кинокамере.
Оператор для создания перспективы планеты-пустыни Аракиса использовал большие стенды с натянутой матовой тканью.
Все те, кто снимался в фильме в роли фременов, являлись чешскими актерами.
Сатурн, 2001 год
Номинации (1):
Лучшая телепостановка
Отличная экранизация.
Книга «Дюна» Френка Герберта, очень сильное произведение. Продолжения от Герберта послабее, но тоже довольно сильны. После смерти Герберта? были написаны продолжения, которые заметно слабее. В 1984 году вышел посредственный фильм, хорошего режиссера Дэвида Линча. В свое время восхитился книгой, после посмотрел фильм (Линча) — порадовался, что книга попалась мне раньше фильма. Тот фильм из разряда тех, что отбивают желание читать первоисточник. Время шло, книга перечитывалась ещё не раз, а желание увидеть полюбившееся произведение на экране, в достойном её исполнении кануло в лету.
В жизни, обычно как — стоит желать, чего-либо и «фиг» получишь. Но как только смиришься с тем, что желание невыполнимо, на те вам пожалуйста. Жизнь вообще забавная, но капризная штучка.
Отличные книги редко так же хороши на экране. И дело тут не столько в разнице подачи, хотя и это тоже, но и в том, что по мнению многих киношников — успешное произведение само себя продаст. Мир, герои, общая сюжетная канва и вперед в кассы.
Этот фильм, я не оговорился — фильм, не такой. Он превосходен. Очень близок по содержанию и что более редко по духу, к первоисточнику. И если бы я не читал книгу, то обязательно бы прочел её после просмотра. Такую фантастику довольно трудно «перевести» на экран, но здесь это удалось вполне. За. что создателям этого кино большое спасибо.
Некоторые считают, что фильму не помешал бы бюджет побольше. Но не стоит испытывать удачу — сколько экранизаций было испорчено при переходе в ранг «блокбастеров».
Смотрите и читайте, или наоборот. Удовольствие можно получить и от книги, и от фильма.
10 из 10
Когда атмосфера превыше технической части
Ознакомившись с первоисточником решил преступить к просмотру данной экранизации. Она оказалось «академической» в лучшем смысле этого слова.
Сюжет передан довольно точно в отличие от фильма 1984 года, где все было скомкано. Формат мини-сериала наиболее подходит для такого произведения.
Актеры. Практически весь каст идеально вписывается. Особенно запомнился Иэн МакНис в роли Владимира Харконнена. Именно таким он представлялся при прочтении книги. Также точно попадание в образ Уильяма Херта. Только разочаровала актриса, играющая Джессику. И то, скорее типажом, а не актерской игрой.
Атмосфера/спецэффекты. Для современного зрителя это будет смотреться как первые части Звездных войн (они то мне и нравятся больше современных именно из-за атмосферы). Слабые спецэффекты перекрываются прекрасно переданной атмосферой Арракиса. Ты как-будто сам оказываешься в песках среди червей и фрименов.
В итоге имеем прекрасное приключение на Арракис.. планету-пустыню.. Дюну.
10 из 10
Общее
Полное имя : F:\Дюна\Dune.2000.BDRip.[pirat.ca]\Dune.2000.P1.BDRip.avi
Формат : AVI
Формат/Информация : Audio Video Interleave
Размер файла : 1,45 Гбайт
Продолжительность : 1 ч. 35 м.
Общий поток : 2172 Кбит/сек
Программа кодирования : VirtualDubMod 1.5.10.2 (build 2540/release)
Библиотека кодирования : VirtualDubMod build 2540/release
Видео
Идентификатор : 0
Формат : MPEG-4 Visual
Профиль формата : Advanced [email protected]
Параметр BVOP формата : 1
Параметр QPel формата : Нет
Параметр GMC формата : Без точки перехода
Параметр матрицы формата : Default (MPEG)
Идентификатор кодека : XVID
Идентификатор кодека/Подсказка : XviD
Продолжительность : 1 ч. 35 м.
Битрейт : 1716 Кбит/сек
Ширина : 720 пикселей
Высота : 400 пикселей
Соотношение сторон : 16:9
Частота кадров : 24,000 кадра/сек
Цветовое пространство : YUV
Субдискретизация насыщенности : 4:2:0
Битовая глубина : 8 бит
Тип развёртки : Прогрессивная
Метод сжатия : С потерями
Бит/(Пиксели*Кадры) : 0.248
Размер потока : 1,14 Гбайт (79%)
Библиотека кодирования : XviD 1.2.0.dev47 (UTC 2006-11-01)
Аудио
Идентификатор : 1
Формат : AC-3
Формат/Информация : Audio Coding 3
Расширение режима : CM (complete main)
Параметр Endianness формата : Big
Идентификатор кодека : 2000
Продолжительность : 1 ч. 35 м.
Вид битрейта : Постоянный
Битрейт : 448 Кбит/сек
Каналы : 6 каналов
Расположение каналов : Front: L C R, Side: L R, LFE
Частота : 48,0 КГц
Частота кадров : 31,250 кадров/сек (1536 spf)
Метод сжатия : С потерями
Размер потока : 306 Мбайт (21%)
Выравнивание : Разделение по промежуткам
Продолжительность промежутка : 42 мс. (1,00 видеокадр)
Время предзагрузки промежутка : 500 мс.
Download / Скачать

Хотите скачать бесплатно? Зарегистрируйтесь на сайте (ссылка на регистрацию). Pirat.ca - самый быстрый торрент трекер в рунете!

Как скачивать  ·   Что такое торрент  ·   Рейтинг и ограничения

savicus

Морской Волк

Пост 09-Окт-2016 20:18 (спустя 2 дня 8 часов)

[Q] 

Отличный фильм.
Смотрел очень давно! С удовольствием посмотрю ещё раз.
На любителя
[Профиль]  [ЛС] 
Показать сообщения:    
Ответить на тему

Текущее время: Сегодня 02:11

Часовой пояс: GMT + 4



Вы не можете начинать темы
Вы не можете отвечать на сообщения
Вы не можете редактировать свои сообщения
Вы не можете удалять свои сообщения
Вы не можете голосовать в опросах
Вы не можете прикреплять файлы к сообщениям
Вы не можете скачивать файлы

▼ Вниз