ML
     
  Уважаемый Гость!
Вы можете поддержать проект и зарегистрироваться у наших партнеров - онлайн-стратегия MyLands. При регистрации в игре Вы получите код, который сможете активировать после регистрации на pirat.ca и получить 1000 дублонов.

Ваш код:
0fcd44bd35319f69313aa6e53b31c51cbff1c942
 
     

Дети Дюны / Children of Dune / Сезон: 1 / Серии: 3 из 3 (Грег Яйтанс / Greg Yaitanes) [2003 г., фантастика, фэнтези, драма, приключения, BDRip] MVO + Original (Eng)

Ответить на тему
 
Автор
Сообщение

Пост 07-Окт-2016 12:22

[Q] 

somik

Легенда

-Дети Дюны / Children of Dune-- Производство: США, Германия
Жанр: фантастика, фэнтези, драма, приключения
Год выпуска: 2003 г.
Продолжительность: 01:23:30
Мировая премьера: 16 марта 2003
Дата выхода DVD: 11 ноября 2008, «Lizard Cinema Trade»
Перевод: Профессиональный (многоголосый, закадровый) [с DVD]
Оригинальный аудиопоток: английский
Режиссер: Грег Яйтанс / Greg Yaitanes-В ролях: Алек Ньюман, Джули Кокс, Сьюзан Сарандон, Эдвард Аттертон, Иэн МакНис, Барбора Кодетова, Стивен Беркофф, Даниэла Амавиа, П.Х. Мориарти, Джеймс МакЭвой, Джессика Брукс, Элис Крайдж, Зденек Мариска-Описание: Прошло 12 лет с тех пор, как Пол Муад-Диб Атрейдес, житель пустыни, задумал подчинить себе Империю. За эти годы все известные планеты попали под власть Пола.
Но барон Харконнен — старый враг Муад-Диба не оставляет надежд низвергнуть Атрейдесов. Теперь судьба и жизнь Империи зависят от детей Пола. Будущее Дюны в руках его сына, обладающего сверхъестественными способностями…-
Качество видео: BDRip
Контейнер: AVI
Видео кодек: XviD
Аудио кодек: AC3
Видео: 720x400 (1.80:1), 25 fps, XviD build 50 ~1773 kbps avg, 0.25 bit/pixel
Аудио: 48 kHz, AC3 Dolby Digital, 3/2 (L,C,R,l,r) + LFE ch, ~384 kbps
Аудио #2: 48 kHz, AC3 Dolby Digital, 3/2 (L,C,R,l,r) + LFE ch, ~320 kbps
Cубтитры: отсутствуют
Мини-сериал создан по книгам Фрэнка Херберта «Мессия Дюны» (1969) и «Дети Дюны» (1976).
Съемки проходили с 3 апреля по август 2002 года в Праге.
Сатурн, 2004 год
Номинации (1):
Лучшая телепостановка
Эмми, 2004 год
Победитель:
Лучшие спецэффекты
«Ты спрашивал, кто есть Дух Пустыни? Я есмь Дух Пустыни…» ©
Роман Фрэнка Герберта «Дюна» по сей день остаётся одним из моих самых любимых художественных произведений в стиле фэнтези. Но почему-то первыми мне было суждено увидеть именно «Детей Дюны»…
Помню, когда этот сериал впервые показывали по телевизору, я сидела перед экраном, точно прикованная, и завороженными глазами внимательно следила за разворачивающимися на нём событиями. Иногда даже отпрашивалась с последних уроков, боясь пропустить хотя бы одну серию этого замечательного фильма, так как он шел по утрам в субботу и, к моему великому сожалению, повтора не имел…
Больше всего меня впечатлил фон, на котором разворачивались действия: бескрайняя пустыня, свободный народ, синеглазое племя, непокорённая земля, аристократические семьи, борющиеся за право обладания ею, великолепие дворцов и бесконечно глубокий смысл, актуальный во все времена!
Центральной фигурой фильма стал, несомненно, молодой герцог, — Лито Атрейдес, которому суждено было заменить своего отца на императорском троне и исправить все, когда либо совершенные им, ошибки. Не могу не отметить, что это одна из первых и самых лучших ролей шотландского актёра Джеймса МакЭвоя, с которой он справился просто превосходно, несмотря на свой достаточно молодой на то время возраст…
Ещё одной звездой сериала стал герой Алека Ньюмана — Пол Муад`Диб, — собственно тот, кому и посвящена вся литературная эпопея Гербертовских «Дюн». Скажу сразу, персонаж не из тех, кого можно с лёгкостью оценить с первого взгляда. Боюсь, однозначности он не имеет ни в этой, ни в какой-либо другой повести знаменитого фантаста… Тем не менее, благородство и величие этого Атрейдеса не могут не задеть сочувствующих сердец зрителей и не оставить неизгладимый след в их памяти!
Конечно, кино не для каждого, но, думаю, каждый сможет найти в нём что-то для себя. Лично я нашла в нём Джеймса… Так что:
10 из 10…
Общее
Полное имя : F:\Дети Дюны\Deti Duny.2003.BDRip.[pirat.ca]\Deti.Dyuny.2003.BDRip.part1.avi
Формат : AVI
Формат/Информация : Audio Video Interleave
Размер файла : 1,46 Гбайт
Продолжительность : 1 ч. 23 м.
Общий поток : 2492 Кбит/сек
Программа кодирования : VirtualDubMod 1.5.10.2 (build 2542/release)
Видео
Идентификатор : 0
Формат : MPEG-4 Visual
Профиль формата : Advanced [email protected]
Параметр BVOP формата : 1
Параметр QPel формата : Нет
Параметр GMC формата : Без точки перехода
Параметр матрицы формата : Выборочная
Идентификатор кодека : XVID
Идентификатор кодека/Подсказка : XviD
Продолжительность : 1 ч. 23 м.
Битрейт : 1774 Кбит/сек
Ширина : 720 пикселей
Высота : 400 пикселей
Соотношение сторон : 16:9
Частота кадров : 25,000 кадров/сек
Цветовое пространство : YUV
Субдискретизация насыщенности : 4:2:0
Битовая глубина : 8 бит
Тип развёртки : Прогрессивная
Метод сжатия : С потерями
Бит/(Пиксели*Кадры) : 0.246
Размер потока : 1,04 Гбайт (71%)
Библиотека кодирования : XviD 1.2.1 (UTC 2008-12-04)
Аудио #1
Идентификатор : 1
Формат : AC-3
Формат/Информация : Audio Coding 3
Расширение режима : CM (complete main)
Параметр Endianness формата : Big
Идентификатор кодека : 2000
Продолжительность : 1 ч. 23 м.
Вид битрейта : Постоянный
Битрейт : 384 Кбит/сек
Каналы : 6 каналов
Расположение каналов : Front: L C R, Side: L R, LFE
Частота : 48,0 КГц
Частота кадров : 31,250 кадров/сек (1536 spf)
Метод сжатия : С потерями
Размер потока : 230 Мбайт (15%)
Выравнивание : Разделение по промежуткам
Продолжительность промежутка : 40 мс. (1,00 видеокадр)
Время предзагрузки промежутка : 500 мс.
Аудио #2
Идентификатор : 2
Формат : AC-3
Формат/Информация : Audio Coding 3
Расширение режима : CM (complete main)
Параметр Endianness формата : Big
Идентификатор кодека : 2000
Продолжительность : 1 ч. 23 м.
Вид битрейта : Постоянный
Битрейт : 320 Кбит/сек
Каналы : 6 каналов
Расположение каналов : Front: L C R, Side: L R, LFE
Частота : 48,0 КГц
Частота кадров : 31,250 кадров/сек (1536 spf)
Метод сжатия : С потерями
Размер потока : 192 Мбайт (13%)
Выравнивание : Разделение по промежуткам
Продолжительность промежутка : 40 мс. (1,00 видеокадр)
Время предзагрузки промежутка : 500 мс.
Download / Скачать

Хотите скачать бесплатно? Зарегистрируйтесь на сайте (ссылка на регистрацию). Pirat.ca - самый быстрый торрент трекер в рунете!

Как скачивать  ·   Что такое торрент  ·   Рейтинг и ограничения

Показать сообщения:    
Ответить на тему

Текущее время: Сегодня 02:11

Часовой пояс: GMT + 4



Вы не можете начинать темы
Вы не можете отвечать на сообщения
Вы не можете редактировать свои сообщения
Вы не можете удалять свои сообщения
Вы не можете голосовать в опросах
Вы не можете прикреплять файлы к сообщениям
Вы не можете скачивать файлы

▼ Вниз