ML
     
  Уважаемый Гость!
Вы можете поддержать проект и зарегистрироваться у наших партнеров - онлайн-стратегия MyLands. При регистрации в игре Вы получите код, который сможете активировать после регистрации на pirat.ca и получить 1000 дублонов.

Ваш код:
0fcd44bd35319f69313aa6e53b31c51cbff1c942
 
     

Прикосновение зла / Touching Evil / Сезон: 1 / Серии: 13 из 13 (Аллен Хьюз / Allen Hughes, ...) [2004 г., триллер, драма, криминал, TVRip] VO + Original (Eng)

Ответить на тему
 
Автор
Сообщение

Пост 10-Окт-2016 02:18

[Q] 

somik

Легенда

-Прикосновение зла / Touching Evil-- Производство: США, Канада Студия: Cheyenne Enterprises, Lexington Films, USA Television Network
Жанр: триллер, драма, криминал
Год выпуска: 2004 г.
Продолжительность: 00:43:00
Мировая премьера: 12 марта 2004
Перевод: Любительский (одноголосый, закадровый)
Оригинальный аудиопоток: английский
Режиссер: Аллен Хьюз / Allen Hughes, ...-В ролях: Джеффри Донован, Вера Фармига, Зэк Гренье, Брайан Маркинсон, Кевин Дюран, Ларисса Тьюсон, Сидни Тьюсон, Лейла Джонсон, Брэдли Купер, Прюитт Тэйлор Винс-Описание: Работа полицейского всегда связана с риском и неожиданностью, но когда за расследование самых опасных дел берется инспектор Дэйв Криген, даже само зло отступает. Дэйв вернулся к работе после длительного перерыва, вызванного страшным ранением. Он поступает на службу в новое подразделение ФБР по борьбе с организованной преступностью OSCU. Здесь ему и его коллегам предстоит заняться розыском самых опасных преступников.-
Качество видео: TVRip
Контейнер: AVI
Видео кодек: XviD
Аудио кодек: MP3
Видео: 608x336 (1.81:1), 23.977 fps, Xvid Codec 1.0 RC3 (build 29) ~1002 kbps avg, 0.20 bit/pixel
Аудио: 44.100 kHz, MPEG Layer 3, 2 ch, ~127.70 kbps avg
Аудио #2: 44.100 kHz, MPEG Layer 3, 2 ch, ~119.19 kbps avg
Cубтитры: отсутствуют
После первого сезона, несмотря на огромный успех у зрителей, проект, по непонятным причинам, был закрыт...
Работа полицейского всегда связана с риском и неожиданностью. Но когда берется за расследование самых опасных дел инспектор Дэйв Криген, даже само зло отступает.
Дэйв вернулся к работе после длительного перерыва, вызванного страшным ранением в голову. Он поступает на службу в новое подразделение ФБР по борьбе с организованной преступностью OSCU.
Здесь ему и его коллегам предстоит заняться розыском самых опасных преступников.
Фильм неплохой и со смыслом, мне понравился, только вышло всего лишь 12 эпизодов, что не очень обрадовало фанатов фильма.
Общее
Полное имя : F:\Прикосновение зла\Touching evil.S01.2004.HDTVRip.[pirat.ca]\touching.evil.s01.e01.02.rus.avi
Формат : AVI
Формат/Информация : Audio Video Interleave
Размер файла : 779 Мбайт
Продолжительность : 1 ч. 26 м.
Режим общего битрейта : Переменный
Общий поток : 1264 Кбит/сек
Программа кодирования : VirtualDubMod 1.5.10.2 (build 2540/release)
Библиотека кодирования : VirtualDubMod build 2540/release
Видео
Идентификатор : 0
Формат : MPEG-4 Visual
Профиль формата : [email protected]
Параметр BVOP формата : 2
Параметр QPel формата : Нет
Параметр GMC формата : Без точки перехода
Параметр матрицы формата : Default (H.263)
Идентификатор кодека : XVID
Идентификатор кодека/Подсказка : XviD
Продолжительность : 1 ч. 26 м.
Битрейт : 1003 Кбит/сек
Ширина : 608 пикселей
Высота : 336 пикселей
Соотношение сторон : 16:9
Частота кадров : 23,976 (23976/1000) кадра/сек
Цветовое пространство : YUV
Субдискретизация насыщенности : 4:2:0
Битовая глубина : 8 бит
Тип развёртки : Прогрессивная
Метод сжатия : С потерями
Бит/(Пиксели*Кадры) : 0.205
Размер потока : 618 Мбайт (79%)
Библиотека кодирования : XviD 1.0.0 RC3 (Nihao) (UTC 2004-03-22)
Аудио #1
Идентификатор : 1
Формат : MPEG Audio
Версия формата : Version 1
Профиль формата : Layer 3
Режим : Joint stereo
Расширение режима : MS Stereo
Идентификатор кодека : 55
Идентификатор кодека/Подсказка : MP3
Продолжительность : 1 ч. 26 м.
Вид битрейта : Переменный
Битрейт : 128 Кбит/сек
Каналы : 2 канала
Частота : 44,1 КГц
Метод сжатия : С потерями
Размер потока : 78,7 Мбайт (10%)
Выравнивание : Разделение по промежуткам
Продолжительность промежутка : 42 мс. (1,00 видеокадр)
Время предзагрузки промежутка : 500 мс.
Библиотека кодирования : LAME3.90.
Настройки программы : -m j -V 2 -q 2 -lowpass 19 --vbr-old
Аудио #2
Идентификатор : 2
Формат : MPEG Audio
Версия формата : Version 1
Профиль формата : Layer 3
Режим : Joint stereo
Расширение режима : MS Stereo
Идентификатор кодека : 55
Идентификатор кодека/Подсказка : MP3
Продолжительность : 1 ч. 26 м.
Продолжительность оригинала : 1 ч. 26 м.
Вид битрейта : Переменный
Битрейт : 119 Кбит/сек
Номинальный битрейт : 112 Кбит/сек
Каналы : 2 канала
Частота : 44,1 КГц
Метод сжатия : С потерями
Размер потока : 73,5 Мбайт (9%)
Выравнивание : Разделение по промежуткам
Продолжительность промежутка : 42 мс. (1,00 видеокадр)
Время предзагрузки промежутка : 500 мс.
Библиотека кодирования : LAME3.95
Настройки программы : -m j -V 4 -q 3 -lowpass 16 --abr 112
Download / Скачать

Хотите скачать бесплатно? Зарегистрируйтесь на сайте (ссылка на регистрацию). Pirat.ca - самый быстрый торрент трекер в рунете!

Как скачивать  ·   Что такое торрент  ·   Рейтинг и ограничения

Показать сообщения:    
Ответить на тему

Текущее время: Сегодня 02:13

Часовой пояс: GMT + 4



Вы не можете начинать темы
Вы не можете отвечать на сообщения
Вы не можете редактировать свои сообщения
Вы не можете удалять свои сообщения
Вы не можете голосовать в опросах
Вы не можете прикреплять файлы к сообщениям
Вы не можете скачивать файлы

▼ Вниз