ML
     
  Уважаемый Гость!
Вы можете поддержать проект и зарегистрироваться у наших партнеров - онлайн-стратегия MyLands. При регистрации в игре Вы получите код, который сможете активировать после регистрации на pirat.ca и получить 1000 дублонов.

Ваш код:
8dcb839cf1b47e56d6dc42d17f26b3e4822e9aee
 
     

Дневники вампира / The Vampire Diaries (Сезон: 2 сезон / Серии: 1-22 серии из 22) (Маркос Сига\Marcos Siega) [2010 г., ужасы, фэнтези, драма, мелодрама, HDRip] MVO (LostFilm)

Ответить на тему
 
Автор
Сообщение

Пост 02-Фев-2012 21:37

[Q] 

Юлия19

Морской Волк

Дневники вампира / The Vampire Diaries
(Сезон: 2 сезон / Серии: 1-22 серии из 22)
Год выпуска: 2010
Мировая премьера: Сентябрь 2010
Российская премьера: Сентябрь 2010
Производство: США
Жанр: ужасы, фэнтези, драма, мелодрама
Продолжительность серии: 00:43:00
Перевод: Профессиональный (многоголосый, закадровый) [LostFilm]
Субтитры: отсутствуют
Режиссер: Маркос Сига\Marcos Siega
В ролях
Нина Добрев, Пол Уесли, Иен Сомелхордер, Стивен МакКуин, Катерина Грехем, Кэндис Аккола
Описание
В новом сезоне «Дневников Вампира» вы познакомитесь с продолжением захватывающей истории любви между обычной девушкой и вампиром. Только теперь главные герои будут соперничать не только между собой, но и с новой героиней, которая не раз была упомянута в первом сезоне. Да, вы угадали, речь идет об опасной и прекрасной Кетрин.
Она приехала в Мистик Фоллз с одной только целью – очаровать Стефана, который в прошлом уже имел честь быть ее возлюбленным. Помимо этого Кетрин очень сильно повлияла на отношения Деймона и Стефана. Они начинают старые обиды, которые приводят к ссоре.
В конце концов это приводит к тому, что уютный городишко снова превращается в арену сражений между вампирами и людьми. Кто знает, не таится ли в очередном темном переулке голодный вампир, питающийся исключительно человеческой кровью?
IMDB , КиноПоиск
Источник/Качество: HDRip
Формат: AVI
Видео кодек: XviD
Аудио кодек: MP3
Видео: 1164 кбит\сек,624*352 (16:9),в 23,976 кадра\сек,Mpeg-4 Visual
Аудио: 128 Кбит\сек,48,0КГц,2 канала,Mpeg Audio
Общее
Полное имя : F:\Дневники вампира\2 сезон\The.Vampire.Diaries.S02E01.rus.LostFilm.TV.avi
Формат : AVI
Формат/Информация : Audio Video Interleave
Размер файла : 391 Мбайт
Продолжительность : 41 м.
Общий поток : 1305 Кбит/сек
Программа кодирования : Nandub v1.0rc2
Библиотека кодирования : Nandub build 1853/release
Видео
Идентификатор : 0
Формат : MPEG-4 Visual
Профиль формата : Advanced [email protected]
Параметр BVOP формата : Нет
Параметр QPel формата : Нет
Параметр GMC формата : Без точки перехода
Параметр матрицы формата : Выборочная
Идентификатор кодека : XVID
Идентификатор кодека/Подсказка : XviD
Продолжительность : 41 м.
Битрейт : 1164 Кбит/сек
Ширина : 624 пикселя
Высота : 352 пикселя
Соотношение сторон : 16:9
Частота кадров : 23,976 кадра/сек
Цветовое пространство : YUV
Субдискретизация насыщенности : 4:2:0
Битовая глубина : 8 бит
Тип развёртки : Прогрессивная
Метод сжатия : С потерями
Бит/(Пиксели*Кадры) : 0.221
Размер потока : 349 Мбайт (89%)
Библиотека кодирования : XviD 1.2.1 (UTC 2008-12-04)
Аудио
Идентификатор : 1
Формат : MPEG Audio
Версия формата : Version 1
Профиль формата : Layer 3
Режим : Joint stereo
Расширение режима : MS Stereo
Идентификатор кодека : 55
Идентификатор кодека/Подсказка : MP3
Продолжительность : 41 м.
Вид битрейта : Постоянный
Битрейт : 128 Кбит/сек
Каналы : 2 канала
Частота : 48,0 КГц
Метод сжатия : С потерями
Размер потока : 38,3 Мбайт (10%)
Выравнивание : Соединение по промежуткам
Продолжительность промежутка : 24 мс. (0,58 видеокадр)
Время предзагрузки промежутка : 480 мс.
Download / Скачать

Хотите скачать бесплатно? Зарегистрируйтесь на сайте (ссылка на регистрацию). Pirat.ca - самый быстрый торрент трекер в рунете!

Как скачивать  ·   Что такое торрент  ·   Рейтинг и ограничения



Последний раз редактировалось: Юлия19 (2012-02-03 13:42), всего редактировалось 2 раз(а)

gEmOkPaT

1423

Пост 03-Фев-2012 09:35 (спустя 11 часов)

[Q] 

Юлия19, переименуйте и перезалейте торрент файл (в названии должны быть только латинские буквы.)
и в этой раздаче Дневники вампира / The Vampire Diaries (Сезон: 1 / Серии: 1-22 из 22) (Маркос Сига\Marcos Siega) [2009 г., ужасы, фэнтези, драма, мелодрама, HDRip] MVO (LostFilm) (вчера не заметил)))

_________________
[Профиль]  [ЛС] 

Юлия19 ®

Морской Волк

375

Пост 03-Фев-2012 13:58 (спустя 4 часа)

[Q] 

Исправила))))
[Профиль]  [ЛС] 

Пост 03-Фев-2012 14:14 (спустя 16 минут)

Топик был перенесен из форума Сериалы в форум Зарубежные сериалы

gEmOkPaT
 

egorka st

Корсар

Пост 03-Фев-2012 17:28 (спустя 3 часа)

[Q] 

Юлия19,
А третий сезон будет? Доченька смотрит, постоянно просит скачать.

_________________
[Профиль]  [ЛС] 

Юлия19 ®

Морской Волк

375

Пост 04-Фев-2012 17:24 (спустя 23 часа)

[Q] 

Да, конечно))) К вечеру постараюсь выложить
[Профиль]  [ЛС] 

egorka st

Корсар

Пост 04-Фев-2012 18:24 (спустя 59 минут)

[Q] 

Ой, Спасибо ждём!

_________________
[Профиль]  [ЛС] 

Юлия19 ®

Морской Волк

375

Пост 04-Фев-2012 19:55 (спустя 1 час 31 минута)

[Q] 

egorka st, Дневники вампира / The Vampire Diaries (Сезон: 3 сезон / Серии: 1-22 из 22) (Маркос Сига\Marcos Siega) [2012 г., ужасы, фэнтези, драма, мелодрама, HDRip] MVO (LostFilm) (пост)
[Профиль]  [ЛС] 

arslanannaev

Морской Волк

Пост 14-Мар-2012 03:40 (спустя 1 месяц 9 дней)

[Q] 

дайте раздачу

_________________
[Профиль]  [ЛС] 

LenS

Штурман

Пост 16-Мар-2012 18:02 (спустя 2 дня 14 часов)

[Q] 

ДАй Те РАздачу!
[Профиль]  [ЛС] 

giantsite1

Лоцман

1

Пост 12-Апр-2012 13:12 (спустя 26 дней)

[Q] 


Глухарь - Дневники вампира Интересно сходства есть?
[Профиль]  [ЛС] 

Voland57

Корсар

Пост 03-Май-2012 20:27 (спустя 21 день)

[Q] 

[Профиль]  [ЛС] 

igoryn56

Штурман

Пост 06-Фев-2013 15:30 (спустя 9 месяцев 2 дня)

[Q] 

ДаЙте раздачи! !!
[Профиль]  [ЛС] 

Deziremoon

Лоцман

Пост 28-Май-2013 19:56 (спустя 3 месяца 22 дня)

[Q] 

ДАЙТЕ СКОРОСТИ !!!!!!!!!!!!!!!!!!
[Профиль]  [ЛС] 

Oxionka

Юнга

Пост 01-Июн-2013 09:31 (спустя 3 дня)

[Q] 

Встанте на раздачку, пожалуйста anime24
[Профиль]  [ЛС] 

gensokigensoki

Лоцман

Пост 19-Авг-2013 13:01 (спустя 2 месяца 18 дней)

[Q] 

Раздайте, пожалуйста)
[Профиль]  [ЛС] 

mixanikk

Морской Волк

Пост 23-Авг-2014 16:57 (спустя 1 год)

[Q] 

Раздайте, пожалуйста) Супер!
[Профиль]  [ЛС] 
Показать сообщения:    
Ответить на тему

Текущее время: Сегодня 04:18

Часовой пояс: GMT + 4



Вы не можете начинать темы
Вы не можете отвечать на сообщения
Вы не можете редактировать свои сообщения
Вы не можете удалять свои сообщения
Вы не можете голосовать в опросах
Вы не можете прикреплять файлы к сообщениям
Вы не можете скачивать файлы

▼ Вниз