ML
     
  Уважаемый Гость!
Вы можете поддержать проект и зарегистрироваться у наших партнеров - онлайн-стратегия MyLands. При регистрации в игре Вы получите код, который сможете активировать после регистрации на pirat.ca и получить 1000 дублонов.

Ваш код:
a01a592a88af5f9996a6d1baec61b18a1769954d
 
     

На Чесапикских берегах / Chesapeake Shores / Сезон: 1 / Серии: 9 из 9 (Мартин Вуд / Martin Wood, ...) [2016 г., драма, семейный, HDTV, 720p] DVO (Neon Studio)

Ответить на тему
 
Автор
Сообщение

Пост 16-Окт-2016 00:32

[Q] 

somik

Легенда

-На Чесапикских берегах / Chesapeake Shores-- Производство: США, Hallmark
Жанр: драма, семейный
Год выпуска: 2016 г.
Продолжительность: 00:42:14
Мировая премьера: 14 августа 2016
Перевод: Любительский (двухголосый, закадровый) [Neon Studio]
Режиссер: Мартин Вуд / Martin Wood, ...-В ролях: Эйден Финн, Йен Хоукинс, Серж Уд, Дайан Лэдд, Лиза МакФадден, Эбби Магнусон, Кэйден Магнусон, Лейси Дж Мейли-Описание: Это история многочисленного семейства О`Брайенов. Один из главных персонажей — архитектор и градостроитель Мик О`Брайен. Когда-то он решил создать коммуну на берегу Чесапикского залива, на земле, которой владели ещё его предки. Трудоголик, Мик своей поглощённостью в работу и упорством разрушил собственную семью и совсем испортил отношения с братьями. Жена от него ушла, но пятерых детей он ей не отдал, а отправил на воспитание своей матери Нелл. Прошли годы, дети, уже взрослые, один за другим начали съезжаться в Чизпик, чтобы воссоединить семью, найти понимание с отцом и попытаться примириться с матерью, которая, как они считают, их бросила. Да и братьям Мика нужно забыть былые обиды. Хорошо, что у этого разношерстного семейства есть Нелл, которая скрепляет О`Брайенов в единое целое!-
Качество видео: HDTV
Контейнер: MKV
Стандарт разрешения: 720p
Видео кодек: MPEG4 AVC
Аудио кодек: AC3
Видео: 3000 Кбит/с, 1280x720, 23,976 (23976/1000) кадра/сек
Аудио: 48 kHz, AC3 Dolby Digital, 2/0 (L,R) ch, 192 kbps
Cубтитры: отсутствуют
Общее
Уникальный идентификатор : 221030787736898779715503359171491968560 (0xA648FB34BBC62B92819247295A62B630)
Полное имя : E:\На Чесапикских берегах (2016)\Chesapeakes Shores.S01.2016.720p.HDTV.[pirat.ca]\Chesapeakes.Shores.s01е01.720p.hdtv.NEONStudio.mkv
Формат : Matroska
Версия формата : Version 2
Размер файла : 1,82 Гбайт
Продолжительность : 1 ч. 21 м.
Общий поток : 3191 Кбит/сек
Дата кодирования : UTC 2016-08-17 07:48:25
Программа кодирования : mkvmerge v4.9.1 ('Ich will') сборка от Jul 11 2011 23:53:15
Библиотека кодирования : libebml v1.2.1 + libmatroska v1.1.1
Видео
Идентификатор : 1
Формат : AVC
Формат/Информация : Advanced Video Codec
Профиль формата : [email protected]
Параметр CABAC формата : Да
Параметр ReFrames формата : 1 кадр
Режим смешивания : Header stripping
Идентификатор кодека : V_MPEG4/ISO/AVC
Продолжительность : 1 ч. 21 м.
Битрейт : 2936 Кбит/сек
Ширина : 1280 пикселей
Высота : 720 пикселей
Соотношение сторон : 16:9
Режим частоты кадров : Постоянный
Частота кадров : 23,976 (23976/1000) кадра/сек
Цветовое пространство : YUV
Субдискретизация насыщенности : 4:2:0
Битовая глубина : 8 бит
Тип развёртки : Прогрессивная
Бит/(Пиксели*Кадры) : 0.133
Размер потока : 1,68 Гбайт (92%)
Default : Да
Forced : Нет
Аудио
Идентификатор : 2
Формат : AC-3
Формат/Информация : Audio Coding 3
Расширение режима : CM (complete main)
Параметр Endianness формата : Big
Режим смешивания : Header stripping
Идентификатор кодека : A_AC3
Продолжительность : 1 ч. 21 м.
Вид битрейта : Постоянный
Битрейт : 192 Кбит/сек
Каналы : 2 канала
Расположение каналов : Front: L R
Частота : 48,0 КГц
Частота кадров : 31,250 кадров/сек (1536 spf)
Метод сжатия : С потерями
Размер потока : 112 Мбайт (6%)
Default : Да
Forced : Нет
Download / Скачать

Хотите скачать бесплатно? Зарегистрируйтесь на сайте (ссылка на регистрацию). Pirat.ca - самый быстрый торрент трекер в рунете!

Как скачивать  ·   Что такое торрент  ·   Рейтинг и ограничения

Показать сообщения:    
Ответить на тему

Текущее время: Сегодня 09:48

Часовой пояс: GMT + 4



Вы не можете начинать темы
Вы не можете отвечать на сообщения
Вы не можете редактировать свои сообщения
Вы не можете удалять свои сообщения
Вы не можете голосовать в опросах
Вы не можете прикреплять файлы к сообщениям
Вы не можете скачивать файлы

▼ Вниз