ML
     
  Уважаемый Гость!
Вы можете поддержать проект и зарегистрироваться у наших партнеров - онлайн-стратегия MyLands. При регистрации в игре Вы получите код, который сможете активировать после регистрации на pirat.ca и получить 1000 дублонов.

Ваш код:
db0e0ad91548759ffeb9bb88bed405e1a4b3c165
 
     

Реанимация / Code Black / Сезон: 1 / Серии: 18 из 18 (Дэвид Фон Энкен / David Von Ancken, ...) [2015 г., драма, WEB-DLRip] MVO (BaiBaKo) + Original (Eng)

Ответить на тему
 
Автор
Сообщение

Пост 16-Окт-2016 03:16

[Q] 

somik

Легенда

-Реанимация / Code Black-- Производство: США, ABC Studios, CBS Television Studios, ...
Жанр: драма
Год выпуска: 2015 г.
Продолжительность: 00:42:00
Мировая премьера: 30 сентября 2015
Перевод: Профессиональный (многоголосый, закадровый) [BaiBaKo]
Оригинальный аудиопоток: английский
Режиссер: Дэвид Фон Энкен / David Von Ancken, ...-В ролях: Бен Холлингсворт, Луис Гусман, Тео Бро, Портер Харрис, Анджела Релусио, Марша Гей Харден, Микаела Браун, Дэвид Миллер, Теа Эмили Нельсон, Филлип Е. Уокер, Мэттью Джон Армстронг-Описание: Сериал рассказывает о сотрудниках скорой помощи лос-анджелесской больницы, которые оказывают помощь пациентам в весьма непростых условиях…-
Качество видео: WEB-DLRip
Контейнер: AVI
Видео кодек: XviD
Аудио кодек: MP3
Видео: 720x400 (1.80:1), 23.976 fps, XviD build 65 ~1482 kbps avg, 0.21 bit/pixel
Аудио: 48 kHz, MPEG Layer 3, 2 ch, ~192.00 kbps avg
Аудио #2: 48 kHz, MPEG Layer 3, 2 ch, ~192.00 kbps avg
Cубтитры: отсутствуют
Новое дыхание
Код черный (оригинальное название Реанимации) не просто очередная медицинская драма. Это одна из самых крутых медицинских драм, которые я видела (а их много, поверьте!). Могу поставить ее наравне с Анатомией страсти и Скорой помощью.
Здесь есть все, что так нравится не только девушкам, но и парням — захватывающий сюжет, интересные сложные персонажи, критически случаи и, конечно, легкий налет окололюбовной тематики.
Каждая серия — борьба. За жизнь, за становление персонажей, как личностей и врачей.
Обожаемая мною Марша Гей Харден играет доктора Рориш — персонажа с личной драмой, который не смотря ни на какие трудности, редко проигрывает в игре под названием «вытащить пациента с того света в больнице, где царит хаос».
Каждая серия — захватывает дыхание. Персонажи — один круче другого (особенно дуэт «Папа — Мама» М. Г. Харден и Луиса Гусмана — угадайте, кто есть кто). На счет музыки не могу ничего сказать, она здесь очень второстепенна. Хороший сценарий, диалоги, забавный медицинский юмор.. Давно меня так не захватывал сериал.
Короче, смотреть обязательно!!
Абсолютные, твердые
10 из 10
и мое восхищение!!!
бщее
Полное имя : F:\Реанимация\Code Black.S01.2015.BaibaKo.[pirat.ca]\Code.Black.s01e01.WEB-DLRip.XviD.Rus.Eng.BaibaKo.avi
Формат : AVI
Формат/Информация : Audio Video Interleave
Размер файла : 593 Мбайт
Продолжительность : 44 м.
Общий поток : 1881 Кбит/сек
Программа кодирования : VirtualDubMod 1.5.10.3 | www.virtualdub-fr.org || (build 2550/release)
Библиотека кодирования : VirtualDubMod build 2550/release
Видео
Идентификатор : 0
Формат : MPEG-4 Visual
Профиль формата : Advanced [email protected]
Параметр BVOP формата : 2
Параметр QPel формата : Нет
Параметр GMC формата : Без точки перехода
Параметр матрицы формата : Default (H.263)
Идентификатор кодека : XVID
Идентификатор кодека/Подсказка : XviD
Продолжительность : 44 м.
Битрейт : 1483 Кбит/сек
Ширина : 720 пикселей
Высота : 400 пикселей
Соотношение сторон : 16:9
Частота кадров : 23,976 (24000/1001) кадра/сек
Цветовое пространство : YUV
Субдискретизация насыщенности : 4:2:0
Битовая глубина : 8 бит
Тип развёртки : Прогрессивная
Метод сжатия : С потерями
Бит/(Пиксели*Кадры) : 0.215
Размер потока : 468 Мбайт (79%)
Библиотека кодирования : XviD 65
Аудио #1
Идентификатор : 1
Формат : MPEG Audio
Версия формата : Version 1
Профиль формата : Layer 3
Режим : Joint stereo
Расширение режима : MS Stereo
Идентификатор кодека : 55
Идентификатор кодека/Подсказка : MP3
Продолжительность : 44 м.
Вид битрейта : Постоянный
Битрейт : 192 Кбит/сек
Каналы : 2 канала
Частота : 48,0 КГц
Метод сжатия : С потерями
Размер потока : 60,5 Мбайт (10%)
Выравнивание : Соединение по промежуткам
Продолжительность промежутка : 42 мс. (1,00 видеокадр)
Время предзагрузки промежутка : 504 мс.
Библиотека кодирования : LAME3.98.4UUUUUU%Ь
Аудио #2
Идентификатор : 2
Формат : MPEG Audio
Версия формата : Version 1
Профиль формата : Layer 3
Режим : Joint stereo
Расширение режима : MS Stereo
Идентификатор кодека : 55
Идентификатор кодека/Подсказка : MP3
Продолжительность : 44 м.
Вид битрейта : Постоянный
Битрейт : 192 Кбит/сек
Каналы : 2 канала
Частота : 48,0 КГц
Метод сжатия : С потерями
Размер потока : 60,5 Мбайт (10%)
Выравнивание : Соединение по промежуткам
Продолжительность промежутка : 42 мс. (1,00 видеокадр)
Время предзагрузки промежутка : 504 мс.
Download / Скачать

Хотите скачать бесплатно? Зарегистрируйтесь на сайте (ссылка на регистрацию). Pirat.ca - самый быстрый торрент трекер в рунете!

Как скачивать  ·   Что такое торрент  ·   Рейтинг и ограничения

Показать сообщения:    
Ответить на тему

Текущее время: Сегодня 08:11

Часовой пояс: GMT + 4



Вы не можете начинать темы
Вы не можете отвечать на сообщения
Вы не можете редактировать свои сообщения
Вы не можете удалять свои сообщения
Вы не можете голосовать в опросах
Вы не можете прикреплять файлы к сообщениям
Вы не можете скачивать файлы

▼ Вниз