ML
     
  Уважаемый Гость!
Вы можете поддержать проект и зарегистрироваться у наших партнеров - онлайн-стратегия MyLands. При регистрации в игре Вы получите код, который сможете активировать после регистрации на pirat.ca и получить 1000 дублонов.

Ваш код:
ea554e7ed3eacceeae87a8b30a9de3f086c18a84
 
     

Горизонт / Горизонвилль / Station Horizon / Сезон: 1 / Серии: 7 из 7 (Ромен Граф / Romain Graf, ...) [2015 г., драма, WEB-DL, 720p] MVO (Sony Turbo)

Ответить на тему
 
Автор
Сообщение

Пост 16-Окт-2016 17:09

[Q] 

somik

Легенда

-Горизонт / Горизонвилль / Station Horizon-- Производство: Швейцария, JumP Cut Production
Жанр: драма
Год выпуска: 2015 г.
Продолжительность: 00:47:00
Мировая премьера: 28 февраля 2015
Российская премьера: 8 марта 2016
Перевод: Профессиональный (многоголосый, закадровый) [Sony Turbo]
Режиссер: Ромен Граф / Romain Graf, ...-В ролях: Бернард Йерле, Ролан Вуйио, Гаспар Беш, Александра Вандернот, Мари Фонтанна, Лавиния Лонги, Батист Жиллиерон, Клаудио Хила, Мелисса Эймон, Йоанн Бланк и др.-Описание: Действие сериала происходит в швейцарском кантоне Вале, где расположился вымышленный городок Горизонвилль. Среди живописных ландшафтов горной местности живет свободолюбивое сообщество, создавшее у себя в городе атмосферу Дикого Запада. Здесь можно увидеть типичные американские автомобили и байкеров, зайти в стриптиз-бар и послушать музыку кантри. Именно сюда, в родной Горизонвилль, возвращается бывший заключенный Йорис, чтобы начать новую жизнь. Мужчине предстоит не очень приятная встреча с родными, бывшим другом и красавицей, в которую он был влюблен в молодости…-
Качество видео: WEB-DL
Контейнер: MKV
Стандарт разрешения: 720p
Видео кодек: MPEG4 AVC
Аудио кодек: AC3
Видео: 1280x720 (16:9), ~3007-3200 Kbps, 25 fps
Аудио: AC3, 192 kbps, 2 ch, 48 kHz
Cубтитры: отсутствуют
Общее
Уникальный идентификатор : 247658289496246413666253743498272848523 (0xBA514066FFFC2B0CAA2291E81EE63A8B)
Полное имя : E:\Горизонвилль\Station Horizon.S01.2015.Sony Turbo.WEB-DL.720p.[pirat.ca]\Station.Horizon.s01e01.WEBRip.720p.SonyTurbo.mkv
Формат : Matroska
Версия формата : Version 4 / Version 2
Размер файла : 1,06 Гбайт
Продолжительность : 46 м.
Режим общего битрейта : Постоянный
Общий поток : 3288 Кбит/сек
Дата кодирования : UTC 2016-10-16 07:51:33
Программа кодирования : mkvmerge v6.9.1 ('Blue Panther') 64bit built on Apr 18 2014 18:23:38
Библиотека кодирования : libebml v1.3.0 + libmatroska v1.4.1
Видео
Идентификатор : 1
Формат : AVC
Формат/Информация : Advanced Video Codec
Профиль формата : [email protected]
Параметр CABAC формата : Да
Параметр ReFrames формата : 4 кадра
Идентификатор кодека : V_MPEG4/ISO/AVC
Продолжительность : 46 м.
Вид битрейта : Постоянный
Битрейт : 3030 Кбит/сек
Номинальный битрейт : 3200 Кбит/сек
Ширина : 1280 пикселей
Высота : 720 пикселей
Соотношение сторон : 16:9
Режим частоты кадров : Постоянный
Частота кадров : 25,000 кадров/сек
Стандарт вещания : PAL
Цветовое пространство : YUV
Субдискретизация насыщенности : 4:2:0
Битовая глубина : 8 бит
Тип развёртки : Прогрессивная
Бит/(Пиксели*Кадры) : 0.132
Размер потока : 1004 Мбайт (92%)
Default : Да
Forced : Нет
Цветовой диапазон : Limited
Основные цвета : BT.709
Характеристики трансфера : BT.709
Коэффициенты матрицы : BT.709
Аудио
Идентификатор : 2
Формат : AC-3
Формат/Информация : Audio Coding 3
Расширение режима : CM (complete main)
Параметр Endianness формата : Big
Идентификатор кодека : A_AC3
Продолжительность : 46 м.
Вид битрейта : Постоянный
Битрейт : 192 Кбит/сек
Каналы : 2 канала
Расположение каналов : Front: L R
Частота : 48,0 КГц
Частота кадров : 31,250 кадров/сек (1536 spf)
Метод сжатия : С потерями
Размер потока : 63,6 Мбайт (6%)
Язык : Russian
Default : Да
Forced : Нет
Download / Скачать

Хотите скачать бесплатно? Зарегистрируйтесь на сайте (ссылка на регистрацию). Pirat.ca - самый быстрый торрент трекер в рунете!

Как скачивать  ·   Что такое торрент  ·   Рейтинг и ограничения

Показать сообщения:    
Ответить на тему

Текущее время: Сегодня 12:10

Часовой пояс: GMT + 4



Вы не можете начинать темы
Вы не можете отвечать на сообщения
Вы не можете редактировать свои сообщения
Вы не можете удалять свои сообщения
Вы не можете голосовать в опросах
Вы не можете прикреплять файлы к сообщениям
Вы не можете скачивать файлы

▼ Вниз