ML
     
  Уважаемый Гость!
Вы можете поддержать проект и зарегистрироваться у наших партнеров - онлайн-стратегия MyLands. При регистрации в игре Вы получите код, который сможете активировать после регистрации на pirat.ca и получить 1000 дублонов.

Ваш код:
062e2babcc491faeb40d496cf9a498ac3df6cdd0
 
     

Декалог / Dekalog / Сезон: 1 / Серии: 10 из 10 (Кшиштоф Кесьлёвский / Krzysztof Kieslowski) [1988 г., драма, BDRip-AVC] MVO (Neoclassica) + Sub (Rus)

Ответить на тему
 
Автор
Сообщение

Пост 28-Окт-2016 19:53

[Q] 

somik

Легенда

-Декалог / Dekalog-- Производство: Польша, Германия (ФРГ), Киностудия «Тор»
Жанр: драма
Год выпуска: 1988 г.
Продолжительность: 00:56:20
Мировая премьера: 10 декабря 1989
Дата выхода DVD: 11 ноября 2010, «Neoclassica»
Перевод: Профессиональный (многоголосый, закадровый) [Neoclassica]
Режиссер: Кшиштоф Кесьлёвский / Krzysztof Kieslowski-В ролях: Хенрих Барановский, Майя Коморовска, Войцех Клята, Кристина Янда, Александр Бардини, Ольгерд Лукашевич, Мария Пакульнис, Даниэль Ольбрыхский, Иоанна Щепковска, Адриана Беджиньска и др.-Описание: «Декалог» — это попытка рассказать десять историй, которые могли случиться с каждым. Это истории о людях, захваченных жизненной суетой, но в результате неожиданного стечения обстоятельств обнаруживающих, что они топчутся на одном месте, забывая про действительно важные цели…
В конце 1980-х годов режиссер Кшиштоф Кесьлевский поставил для телевидения "Декалог", фильм из десяти новелл, тематически вдохновленных Десятью Заповедями. Не все заповеди легли в основу фильмов, какие-то переиначены... Неканонический "Декалог" Кесьлевского таков: "Не сотвори себе кумира", "Не поминай имени Господа всуе", "Чти субботний день", "Почитай отца и мать свою", "Не убий", "Не прелюбодействуй", "Не укради", "Не лжесвидетельствуй", "Не желай жены ближнего своего", "Не желай добра ближнего".
Герои "Декалога" – обычные люди, наши современники со своими страстями, недостатками и достоинствами. ""Декалог" – это попытка рассказать десять историй, которые могли случиться с каждым. Это истории о людях, захваченных жизненной суетой, но в результате неожиданного стечения обстоятельств обнаруживающих, что они топчутся на одном месте, забывая про действительно важные цели", – так охарактеризовал свой цикл Кшиштоф Кесьлевский.-
Качество видео: BDRip-AVC
Контейнер: MKV
Видео кодек: MPEG4 AVC
Аудио кодек: AC3
Видео: 960x544, ~2181 kbps, 25 fps
Аудио: AC3, 2 ch, 192 Kbps, 48,0 kHz
Cубтитры: русские
Формат субтитров: softsub (SSA/ASS)
Доп. информация о субтитрах: включаемые
Венецианский кинофестиваль, 1989 год
Победитель (1):
Приз международной ассоциации кинокритиков (ФИПРЕССИ)
Сан-Себастьян, 1989 год
Победитель (1):
Премия Международной Католической организации в области кино (OCIC) - особое упоминание
10 из 10
«Декалог» — гораздо больше, чем просто кино. Монументальный шедевр, каждая серия — настоящий эмоциональный взрыв, 50-55 минут «кенематографического доминирования», в которых полностью растворяешься и с замиранием дыхания отдаёшь все свои чувства без остатка.
2 величайших гения (режиссёр и композитор)
10 разных операторов
10 заповедей
10 жизненных историй
Экзистенциальная философия обыденных ситуаций, простота повествования сложных сюжетных линий, удивительно точное внимание к деталям, целостность и лаконичность каждой серии, музыкальное сопровождение гениального Збигнева Прайснера, идеально точно аккомпанируя любой эмоциональный скачок, дополненные художественным великолепием и эстетикой каждого кадра, создают уникальную «триллерность», выражающуюся в особом чувстве тревоги. Всё это приковывают внимание зрителя (доводя до эффекта «не моргай\не дыши») с начальных, первых секунд, где мягким тоном оранжево-жёлтого цвета по чёрному фону идут «приветственные» титры, открывающие новую серию «Декалога».
Ps: тем кто не видел, не советую смотреть больше одной серии в день. Во-первых, с целью своеобразной «экономии», а во-вторых, просто потому, что это эмоционально тяжело, хотя, лично я, иногда не мог остановиться и запускал следующую. А ещё, хорошо помню, как со второй\третьей серии бежали мурашки уже со вступительных титров от пианино Прайснера и неистового предвкушения.
Общее
Уникальный идентификатор : 204390395314837544983971360339669244458 (0x99C4288443C2CC58A209A176A4DF5A2A)
Полное имя : F:\Декалог\Декалог.1988.BDRip-AVC.[pirat.ca]\Декалог. 1 серия.mkv
Формат : Matroska
Версия формата : Version 2
Размер файла : 928 Мбайт
Продолжительность : 53 м.
Общий поток : 2425 Кбит/сек
Дата кодирования : UTC 2016-10-28 14:50:14
Программа кодирования : mkvmerge v5.3.0 ('I could have danced') built on Feb 9 2012 10:38:07
Библиотека кодирования : libebml v1.2.3 + libmatroska v1.3.0
Видео
Идентификатор : 1
Формат : AVC
Формат/Информация : Advanced Video Codec
Профиль формата : [email protected]
Параметр CABAC формата : Да
Параметр ReFrames формата : 4 кадра
Идентификатор кодека : V_MPEG4/ISO/AVC
Продолжительность : 53 м.
Битрейт : 2184 Кбит/сек
Ширина : 960 пикселей
Высота : 544 пикселя
Соотношение сторон : 16:9
Режим частоты кадров : Постоянный
Частота кадров : 25,000 кадров/сек
Цветовое пространство : YUV
Субдискретизация насыщенности : 4:2:0
Битовая глубина : 8 бит
Тип развёртки : Прогрессивная
Бит/(Пиксели*Кадры) : 0.167
Размер потока : 836 Мбайт (90%)
Заголовок : Декалог. 1 серия
Библиотека кодирования : x264 core 130 r2273 b3065e6
Default : Да
Forced : Нет
Аудио
Идентификатор : 2
Формат : AC-3
Формат/Информация : Audio Coding 3
Расширение режима : CM (complete main)
Параметр Endianness формата : Big
Идентификатор кодека : A_AC3
Продолжительность : 53 м.
Вид битрейта : Постоянный
Битрейт : 192 Кбит/сек
Каналы : 2 канала
Расположение каналов : Front: L R
Частота : 48,0 КГц
Частота кадров : 31,250 кадров/сек (1536 spf)
Метод сжатия : С потерями
Задержка видео : 24 мс.
Размер потока : 73,5 Мбайт (8%)
Заголовок : AC3, 2 ch, 192kbps - MVO
Язык : Russian
Default : Да
Forced : Нет
Текст
Идентификатор : 3
Формат : UTF-8
Идентификатор кодека : S_TEXT/UTF8
Идентификатор кодека/Информация : UTF-8 Plain Text
Язык : Russian
Default : Да
Forced : Нет
Download / Скачать

Хотите скачать бесплатно? Зарегистрируйтесь на сайте (ссылка на регистрацию). Pirat.ca - самый быстрый торрент трекер в рунете!

Как скачивать  ·   Что такое торрент  ·   Рейтинг и ограничения

Показать сообщения:    
Ответить на тему

Текущее время: Сегодня 17:40

Часовой пояс: GMT + 4



Вы не можете начинать темы
Вы не можете отвечать на сообщения
Вы не можете редактировать свои сообщения
Вы не можете удалять свои сообщения
Вы не можете голосовать в опросах
Вы не можете прикреплять файлы к сообщениям
Вы не можете скачивать файлы

▼ Вниз