ML
     
  Уважаемый Гость!
Вы можете поддержать проект и зарегистрироваться у наших партнеров - онлайн-стратегия MyLands. При регистрации в игре Вы получите код, который сможете активировать после регистрации на pirat.ca и получить 1000 дублонов.

Ваш код:
74c28610d77aaac24ba694c4128f3b9b46b04220
 
     

Ангел из ада / Angel from Hell / Сезон: 1 / Серии: 13 из 13 (Дон Скардино / Don Scardino, ...) [2016 г., комедия, WEB-DL, 1080p] MVO (NewStudio) + Original (Eng)

Ответить на тему
 
Автор
Сообщение

Пост 29-Окт-2016 19:31

[Q] 

somik

Легенда

-Ангел из ада / Angel from Hell-- Производство: США, CBS Television Studios, ...
Жанр: комедия
Год выпуска: 2016 г.
Продолжительность: 00:21:15
Мировая премьера: 7 января 2016
Перевод: Профессиональный (многоголосый, закадровый) [NewStudio]
Оригинальный аудиопоток: английский
Режиссер: Дон Скардино / Don Scardino, ...-В ролях: Джинджер Гонзага, Дэвид Денман, Джейн Линч, Кайл Борнхаймер, Эшли Моник Кларк, Б.Дж. Клинкскейлз, David A. Garcia, Кеисуке Хоаси, Ник Джэйни, Чжин-хи Чжон и др.-Описание: Эллисон никак не может понять то ли ее новая подруга это ее ангел-хранитель, то ли она просто сумасшедшая…-
Качество видео: WEB-DL
Контейнер: MKV
Стандарт разрешения: 1080p
Видео кодек: MPEG4 AVC
Аудио кодек: AC3
Видео: 4974 Кбит/с, 1920x1080,
Аудио: AC3, 6 ch, 384 Кбит/с,
Аудио #2: AC3, 6 ch, 384 Кбит/с,
Cубтитры: отсутствуют
Аааа!! Вышло уже три серии этого блестящего сериала и ни одной рецензии.
Первое что вы должны знать — это один из лучших комедийных сериалов. Море однообразных, типа «Друзья», «Два с половиной человека» и тому подобных, которые достаточно хороши, но перенеси шутку из «Друзей» в «Как сказал Джим» — никто и не заметит. Они однотипны и нарочиты. Но есть штучные сериалы, со своим почерком, своей аурой, такие как «Community», а теперь и «Ангел из ада».
Сюжет довольно прост — в жизнь обычной американской женщины — Эллисон (Мэгги Лосон) вдруг, с изящностью бульдозера, входит абсолютно взбалмошная тётка — Эми (Джейн Линч), которая утверждает, что она её ангел-хранитель. Чудесами этот ангел не балует и ничем сверхъестественным кроме эксцентричности и, ещё одного пунктика, о котором речь пойдёт ниже, не обладает. Зато исправно, самым бесцеремонным образом, вмешивается в её жизнь.
Впрочем, нужно уточнить, что «из ада» здесь подразумевает не то, что Эми портит и вредничает или что-то подобное, а просто её сумасбродство, что для устоявшегося мирка Эллисон — ад или близко к тому. Сама же Эллисон до того нормальная, что зубы сводит: устраивает вечеринку в честь отношений в самом пошлом стиле Дженнифер Энистон; не задаёт лишних вопросов о ангельстве Эми, чтоб сохранить свой маленький мирок и вообще, пытается быть «хорошей» девочкой.
Что следует отметить, так это диалоги, здесь шутки так кропотливо и заботливо вписаны в мизансцены, такие лёгкие и простые что я просто замирал от восхищения. Всё продумано до мелочей. Вот, например, единственная «сверхъестественная» способность — ловить всё, что в неё кинули. То есть если что-нибудь в неё кинуть, то она по-любому выловчится и поймает. Это же просто гениальный ход! «Ангел»-может-поймайть-всё-что-в-него-кинули! Вы только вдумайтесь! Если быть повнимательнее можно отследить и другие изящные ходы. Так что единственная рекомендация которую я могу здесь дать — смотрите и наслаждайтесь!
10 из 10
Общее
Уникальный идентификатор : 188291261519397613309057677391270536832 (0x8DA793F01E4DA56DB0E82EDD88146680)
Полное имя : D:\D\Ангел из ада\Angel From Hell.s01.WEBDL.1080p.NewStudio.[pirat.ca]\Angel.From.Hell.s01e01.WEBDL.1080p.NewStudio.TV.mkv
Формат : Matroska
Версия формата : Version 4 / Version 2
Размер файла : 873 Мбайт
Продолжительность : 21 м.
Общий поток : 5744 Кбит/сек
Дата кодирования : UTC 2016-01-11 14:28:15
Программа кодирования : mkvmerge v8.2.0 ('World of Adventure') 64bit
Библиотека кодирования : libebml v1.3.1 + libmatroska v1.4.2
Видео
Идентификатор : 1
Формат : AVC
Формат/Информация : Advanced Video Codec
Профиль формата : [email protected]
Параметр CABAC формата : Да
Параметр ReFrames формата : 4 кадра
Идентификатор кодека : V_MPEG4/ISO/AVC
Продолжительность : 21 м.
Битрейт : 4974 Кбит/сек
Ширина : 1920 пикселей
Высота : 1080 пикселей
Соотношение сторон : 16:9
Режим частоты кадров : Постоянный
Частота кадров : 23,976 (24000/1001) кадра/сек
Цветовое пространство : YUV
Субдискретизация насыщенности : 4:2:0
Битовая глубина : 8 бит
Тип развёртки : Прогрессивная
Бит/(Пиксели*Кадры) : 0.100
Размер потока : 756 Мбайт (87%)
Язык : English
Default : Да
Forced : Нет
Цветовой диапазон : Limited
Основные цвета : BT.709
Характеристики трансфера : BT.709
Коэффициенты матрицы : BT.709
Аудио #1
Идентификатор : 2
Формат : AC-3
Формат/Информация : Audio Coding 3
Расширение режима : CM (complete main)
Параметр Endianness формата : Big
Идентификатор кодека : A_AC3
Продолжительность : 21 м.
Вид битрейта : Постоянный
Битрейт : 384 Кбит/сек
Каналы : 6 каналов
Расположение каналов : Front: L C R, Side: L R, LFE
Частота : 48,0 КГц
Частота кадров : 31,250 кадров/сек (1536 spf)
Метод сжатия : С потерями
Размер потока : 58,4 Мбайт (7%)
Язык : Russian
Default : Да
Forced : Да
Аудио #2
Идентификатор : 3
Формат : AC-3
Формат/Информация : Audio Coding 3
Расширение режима : CM (complete main)
Параметр Endianness формата : Big
Идентификатор кодека : A_AC3
Продолжительность : 21 м.
Вид битрейта : Постоянный
Битрейт : 384 Кбит/сек
Каналы : 6 каналов
Расположение каналов : Front: L C R, Side: L R, LFE
Частота : 48,0 КГц
Частота кадров : 31,250 кадров/сек (1536 spf)
Метод сжатия : С потерями
Размер потока : 58,4 Мбайт (7%)
Язык : English
Default : Нет
Forced : Нет
Download / Скачать

Хотите скачать бесплатно? Зарегистрируйтесь на сайте (ссылка на регистрацию). Pirat.ca - самый быстрый торрент трекер в рунете!

Как скачивать  ·   Что такое торрент  ·   Рейтинг и ограничения

bjb13

Шкипер

Пост 30-Окт-2016 00:54 (спустя 5 часов)

[Q] 

Что за WTF!
[Профиль]  [ЛС] 
Показать сообщения:    
Ответить на тему

Текущее время: Сегодня 10:00

Часовой пояс: GMT + 4



Вы не можете начинать темы
Вы не можете отвечать на сообщения
Вы не можете редактировать свои сообщения
Вы не можете удалять свои сообщения
Вы не можете голосовать в опросах
Вы не можете прикреплять файлы к сообщениям
Вы не можете скачивать файлы

▼ Вниз