ML
     
  Уважаемый Гость!
Вы можете поддержать проект и зарегистрироваться у наших партнеров - онлайн-стратегия MyLands. При регистрации в игре Вы получите код, который сможете активировать после регистрации на pirat.ca и получить 1000 дублонов.

Ваш код:
ef8b3e8cd07bec918273586d22e5aaf18e0ae925
 
     

Попадец / Zapped / Dave / Сезон: 1 / Серии: 3 из 3 (Дейв Ламберт / Dave Lambert) [2016 г., фэнтези, комедия, HDTV, 720p] DVO (JimmyJ) + Original (Eng)

Ответить на тему
 
Автор
Сообщение

Пост 01-Ноя-2016 20:21

[Q] 

somik

Легенда

-Попадец / Zapped / Dave-- Производство: Великобритания
Жанр: фэнтези, комедия
Год выпуска: 2016 г.
Продолжительность: 00:30:00
Мировая премьера: 13 октября 2016
Перевод: Любительский (двухголосый, закадровый) [JimmyJ]
Оригинальный аудиопоток: английский
Режиссер: Дейв Ламберт / Dave Lambert-В ролях: Джеймс Бакли, Кеннет Коллар, Луис Эмерик, Рики Гроувер, Пол Кэй, Шэрон Руни, Тони Вэй, Харука Абе, Гуз Кхан, Мартин Глин Мюррэй, ...-Описание: Клерк Брайан благодаря сбою в пространственно-временном континууме получает магический браслет. С его помощью он перемещается в параллельный мир, где хоть и чувствует себя неплохо, ввиду того, что компания подобралась соответствующая, но все равно хочет вернуться домой. А это не так-то просто сделать.-
Качество видео: HDTV
Контейнер: MKV
Стандарт разрешения: 720p
Видео кодек: MPEG4 AVC
Аудио кодек: AC3
Видео: 2700 Кбит/с, 1280x720, 25 fps
Аудио: AC3 / 5.1 / 384kbs / 48 kHz
Аудио #2: AC3 / 5.1 / 384kbs / 48 kHz
Cубтитры: отсутствуют
бщее
Уникальный идентификатор : 214973842650222582427698898318348411187 (0xA1BA74C1CA514D51B1749B60D0D26133)
Полное имя : C:\герои 7\Попадец [1 сезон] (2016) Zapped\Zapped.S01.720p.HDTVRip.JimmyJ.[pirat.ca]\Zapped.S01E01.720p.HDTVRip.JimmyJ.mkv
Формат : Matroska
Версия формата : Version 2
Размер файла : 744 Мбайт
Продолжительность : 29 м.
Общий поток : 3474 Кбит/сек
Дата кодирования : UTC 2016-11-01 15:38:16
Программа кодирования : mkvmerge v5.3.0 ('I could have danced') built on Feb 9 2012 10:38:07
Библиотека кодирования : libebml v1.2.3 + libmatroska v1.3.0
Видео
Идентификатор : 1
Формат : AVC
Формат/Информация : Advanced Video Codec
Профиль формата : [email protected]
Параметр CABAC формата : Да
Параметр ReFrames формата : 4 кадра
Идентификатор кодека : V_MPEG4/ISO/AVC
Продолжительность : 29 м.
Битрейт : 2637 Кбит/сек
Ширина : 1280 пикселей
Высота : 720 пикселей
Соотношение сторон : 16:9
Режим частоты кадров : Постоянный
Частота кадров : 25,000 кадров/сек
Цветовое пространство : YUV
Субдискретизация насыщенности : 4:2:0
Битовая глубина : 8 бит
Тип развёртки : Прогрессивная
Бит/(Пиксели*Кадры) : 0.114
Размер потока : 565 Мбайт (76%)
Язык : English
Default : Нет
Forced : Да
Statistics Tags Issue : mkvmerge v9.5.0 ('Quiet Fire') 64bit 2016-10-21 22:36:40 / mkvmerge v5.3.0 ('I could have danced') built on Feb 9 2012 10:38:07 2016-11-01 15:38:16
FromStats_BitRate : 2700735
FromStats_Duration : 00:30:07.160000000
FromStats_FrameCount : 45179
FromStats_StreamSize : 610082744
Аудио #1
Идентификатор : 2
Формат : AC-3
Формат/Информация : Audio Coding 3
Расширение режима : CM (complete main)
Параметр Endianness формата : Big
Идентификатор кодека : A_AC3
Продолжительность : 29 м.
Вид битрейта : Постоянный
Битрейт : 384 Кбит/сек
Каналы : 6 каналов
Расположение каналов : Front: L C R, Side: L R, LFE
Частота : 48,0 КГц
Частота кадров : 31,250 кадров/сек (1536 spf)
Метод сжатия : С потерями
Задержка видео : 24 мс.
Размер потока : 82,2 Мбайт (11%)
Заголовок : DVO JimmyJ
Язык : Russian
Default : Нет
Forced : Да
Statistics Tags Issue : mkvmerge v9.5.0 ('Quiet Fire') 64bit 2016-10-21 22:36:40 / mkvmerge v5.3.0 ('I could have danced') built on Feb 9 2012 10:38:07 2016-11-01 15:38:16
FromStats_BitRate : 384000
FromStats_Duration : 00:30:07.168000000
FromStats_FrameCount : 56474
FromStats_StreamSize : 86744064
Аудио #2
Идентификатор : 3
Формат : AC-3
Формат/Информация : Audio Coding 3
Расширение режима : CM (complete main)
Параметр Endianness формата : Big
Идентификатор кодека : A_AC3
Продолжительность : 29 м.
Вид битрейта : Постоянный
Битрейт : 384 Кбит/сек
Каналы : 6 каналов
Расположение каналов : Front: L C R, Side: L R, LFE
Частота : 48,0 КГц
Частота кадров : 31,250 кадров/сек (1536 spf)
Метод сжатия : С потерями
Задержка видео : 24 мс.
Размер потока : 82,2 Мбайт (11%)
Заголовок : Original
Язык : English
Default : Нет
Forced : Нет
Statistics Tags Issue : mkvmerge v9.5.0 ('Quiet Fire') 64bit 2016-10-21 22:36:40 / mkvmerge v5.3.0 ('I could have danced') built on Feb 9 2012 10:38:07 2016-11-01 15:38:16
FromStats_BitRate : 384000
FromStats_Duration : 00:30:07.168000000
FromStats_FrameCount : 56474
FromStats_StreamSize : 86744064
Download / Скачать

Хотите скачать бесплатно? Зарегистрируйтесь на сайте (ссылка на регистрацию). Pirat.ca - самый быстрый торрент трекер в рунете!

Как скачивать  ·   Что такое торрент  ·   Рейтинг и ограничения

Показать сообщения:    
Ответить на тему

Текущее время: Сегодня 18:39

Часовой пояс: GMT + 4



Вы не можете начинать темы
Вы не можете отвечать на сообщения
Вы не можете редактировать свои сообщения
Вы не можете удалять свои сообщения
Вы не можете голосовать в опросах
Вы не можете прикреплять файлы к сообщениям
Вы не можете скачивать файлы

▼ Вниз