ML
     
  Уважаемый Гость!
Вы можете поддержать проект и зарегистрироваться у наших партнеров - онлайн-стратегия MyLands. При регистрации в игре Вы получите код, который сможете активировать после регистрации на pirat.ca и получить 1000 дублонов.

Ваш код:
4399ab8611ee7f8a22949d2ee7634160dd2db7e0
 
     

Неоновый Джо - Охотник на оборотней / Neon Joe, Werewolf Hunter / Сезон: 1 / Серии: 5 из 5 (Райан МакФо / Ryan McFaul, ...) [2015 г., ужасы, фантастика, комедия, WEB-DL, 720p] DVO (JimmyJ) + Original (Eng)

Ответить на тему
 
Автор
Сообщение

Пост 02-Ноя-2016 13:38

[Q] 

somik

Легенда

-Неоновый Джо - Охотник на оборотней / Neon Joe, Werewolf Hunter-- Производство: США, P.F.F.R.
Жанр: ужасы, фантастика, комедия
Год выпуска: 2015 г.
Продолжительность: 00:22:30
Мировая премьера: 7 декабря 2015
Перевод: Любительский (двухголосый, закадровый) [JimmyJ]
Оригинальный аудиопоток: английский
Режиссер: Райан МакФо / Ryan McFaul, ...-В ролях: Джон Глейсер, Скотт Эдсит, Стив Кирбус, Стив Литтл, Стефани Марч, Шулер Хенсли, Дэмиэн Янг, Брайан Бертон, Дженнифер Риган, Нелли Кэмпбелл-Описание: "Неоновый Джо" это сюрреалистично-фанатастическая хоррор комедия от канала адол свим, напичканная отсылками и странным юмором. В небольшом городке завелся оборотень и кто как не охотник на оборотней сможет его остановить? Есть только одна проблема, этот городок совсем непростой, а местные жители не те, кем кажутся на первый взгляд...-
Качество видео: WEB-DL
Контейнер: MKV
Стандарт разрешения: 720p
Видео кодек: MPEG4 AVC
Аудио кодек: AC3
Видео: 1280x720 , 23.976 fps , 3000 kbps
Аудио: AC3, 48 KHz, 2 ch, 192 kbps
Аудио #2: AC3, 48 KHz, 2 ch, 192 kbps
Cубтитры: отсутствуют
Общее
Уникальный идентификатор : 240803727728213515525506425794613761386 (0xB5291C6A2E2C26AD8108F5955200556A)
Полное имя : J:\Неоновый Джо - Охотник на оборотней (2015)\Neon Joe.Werewolf Hunter.S01.720p.WEBDL.Jimmy.J.[pirat.ca]\Neon Joe.Werewolf Hunter.S01E01.720p.WEBDL.720р.Jimmy.J.[pirat.ca].mkv
Формат : Matroska
Версия формата : Version 2
Размер файла : 663 Мбайт
Продолжительность : 22 м.
Общий поток : 4106 Кбит/сек
Дата кодирования : UTC 2016-11-02 09:09:02
Программа кодирования : mkvmerge v5.3.0 ('I could have danced') built on Feb 9 2012 10:38:07
Библиотека кодирования : libebml v1.2.3 + libmatroska v1.3.0
Видео
Идентификатор : 1
Формат : AVC
Формат/Информация : Advanced Video Codec
Профиль формата : [email protected]
Параметр CABAC формата : Да
Параметр ReFrames формата : 6 кадров
Идентификатор кодека : V_MPEG4/ISO/AVC
Продолжительность : 22 м.
Битрейт : 3641 Кбит/сек
Ширина : 1280 пикселей
Высота : 720 пикселей
Соотношение сторон : 16:9
Режим частоты кадров : Постоянный
Частота кадров : 23,976 (24000/1001) кадра/сек
Цветовое пространство : YUV
Субдискретизация насыщенности : 4:2:0
Битовая глубина : 8 бит
Тип развёртки : Прогрессивная
Бит/(Пиксели*Кадры) : 0.165
Размер потока : 587 Мбайт (89%)
Библиотека кодирования : x264 core 146 r2538 121396c
Настройки программы : cabac=1 / ref=6 / deblock=1:-2:-2 / analyse=0x3:0x133 / me=umh / subme=9 / psy=1 / psy_rd=1.00:0.00 / mixed_ref=1 / me_range=16 / chroma_me=1 / trellis=2 / 8x8dct=1 / cqm=0 / deadzone=21,11 / fast_pskip=0 / chroma_qp_offset=-2 / threads=3 / lookahead_threads=1 / sliced_threads=0 / nr=0 / decimate=1 / interlaced=0 / bluray_compat=0 / constrained_intra=0 / bframes=7 / b_pyramid=2 / b_adapt=2 / b_bias=0 / direct=3 / weightb=1 / open_gop=0 / weightp=2 / keyint=240 / keyint_min=23 / scenecut=40 / intra_refresh=0 / rc_lookahead=60 / rc=crf / mbtree=0 / crf=18.0 / qcomp=0.60 / qpmin=0 / qpmax=69 / qpstep=4 / vbv_maxrate=50000 / vbv_bufsize=62500 / crf_max=0.0 / nal_hrd=none / filler=0 / ip_ratio=1.40 / pb_ratio=1.25 / aq=2:0.90
Default : Да
Forced : Нет
Аудио #1
Идентификатор : 2
Формат : AC-3
Формат/Информация : Audio Coding 3
Расширение режима : CM (complete main)
Параметр Endianness формата : Big
Идентификатор кодека : A_AC3
Продолжительность : 22 м.
Вид битрейта : Постоянный
Битрейт : 192 Кбит/сек
Каналы : 2 канала
Расположение каналов : Front: L R
Частота : 48,0 КГц
Частота кадров : 31,250 кадров/сек (1536 spf)
Метод сжатия : С потерями
Задержка видео : 6 мс.
Размер потока : 31,0 Мбайт (5%)
Язык : Russian
Default : Да
Forced : Нет
Аудио #2
Идентификатор : 3
Формат : AC-3
Формат/Информация : Audio Coding 3
Расширение режима : CM (complete main)
Параметр Endianness формата : Big
Идентификатор кодека : A_AC3
Продолжительность : 22 м.
Вид битрейта : Постоянный
Битрейт : 192 Кбит/сек
Каналы : 2 канала
Расположение каналов : Front: L R
Частота : 48,0 КГц
Частота кадров : 31,250 кадров/сек (1536 spf)
Метод сжатия : С потерями
Задержка видео : 6 мс.
Размер потока : 31,0 Мбайт (5%)
Язык : English
Default : Нет
Forced : Нет
Download / Скачать

Хотите скачать бесплатно? Зарегистрируйтесь на сайте (ссылка на регистрацию). Pirat.ca - самый быстрый торрент трекер в рунете!

Как скачивать  ·   Что такое торрент  ·   Рейтинг и ограничения

somik ®

Легенда

26479

Пост 02-Ноя-2016 13:40 (спустя 2 минуты)

[Q] 

Внимание: есть немного рекламы! ca Фильм типично американская комедия с юмором, рассчитанным на 3-х летнего зрителя. На любителя

_________________
Всё когда-нибудь уже было... В интернете!
[Профиль]  [ЛС] 

Дядя Витя

53827

Пост 02-Ноя-2016 19:41 (спустя 6 часов)

[Q] 

771721Фильм типично американская комедия с юмором, рассчитанным на 3-х летнего зрителя.
Рецензия

_________________
?
[Профиль]  [ЛС] 
Показать сообщения:    
Ответить на тему

Текущее время: Сегодня 10:48

Часовой пояс: GMT + 4



Вы не можете начинать темы
Вы не можете отвечать на сообщения
Вы не можете редактировать свои сообщения
Вы не можете удалять свои сообщения
Вы не можете голосовать в опросах
Вы не можете прикреплять файлы к сообщениям
Вы не можете скачивать файлы

▼ Вниз