ML
     
  Уважаемый Гость!
Вы можете поддержать проект и зарегистрироваться у наших партнеров - онлайн-стратегия MyLands. При регистрации в игре Вы получите код, который сможете активировать после регистрации на pirat.ca и получить 1000 дублонов.

Ваш код:
2fd4e750dd89cae3a36ea360f2b345ccfeb562d3
 
     

Ранчо / The Ranch / Сезон: 1 / Серии: 20 из 20 (Дэвид Трейнер / David Trainer) [2016 г., Ситком, WEB-DL, 720p] MVO (Jaskier) + Original (Eng)

Ответить на тему
 
Автор
Сообщение

Пост 03-Ноя-2016 10:27

[Q] 

somik

Легенда

-Ранчо / The Ranch-- Производство: США, Netflix
Жанр: Ситком
Год выпуска: 2016 г.
Продолжительность: 00:30:00
Мировая премьера: 1 апреля 2016
Перевод: Профессиональный (многоголосый, закадровый) [Jaskier]
Оригинальный аудиопоток: английский
Режиссер: Дэвид Трейнер / David Trainer-В ролях: Эштон Кутчер, Дэнни Мастерсон, Сэм Эллиотт, Дебра Уингер и другие-Описание: Сериал расскажет о ранчо в Колорадо, куда после своей яркой, но короткой карьеры возвращается главный герой, чтобы начать семейный бизнес со своим родным братом.-
Качество видео: WEB-DL
Контейнер: MKV
Стандарт разрешения: 720p
Видео кодек: MPEG4 AVC
Аудио кодек: AC3
Видео: 1280x720 (16:9), 23.976fps, 3325 kbps, 0.150 bit/pixel
Аудио: Dolby AC3 48000Hz stereo 192 Kbps
Аудио #2: Dolby AAC 48000Hz 6ch 384 Kbps
Cубтитры: отсутствуют
Общее
Уникальный идентификатор : 230513529093854986540143551103776497583 (0xAD6B4A73A06F225CAE6CDD580CE69FAF)
Полное имя : E:\Ранчо The Ranch 2016\The Ranch.S01.WEBRip.720p.Jaskier.[pirat.ca]\The.Ranch.s01e01.720p.WEBRip.x264-Jaskier.mkv
Формат : Matroska
Версия формата : Version 1
Размер файла : 874 Мбайт
Продолжительность : 28 м.
Общий поток : 4242 Кбит/сек
Название фильма : the.ranch.s01e01.720p
Дата кодирования : UTC 2016-04-03 22:56:51
Программа кодирования : mkvmerge v2.3.0 ('Freak U') built on Sep 8 2008 18:32:16
Библиотека кодирования : libebml v0.7.7 + libmatroska v0.8.1
Видео
Идентификатор : 1
Формат : AVC
Формат/Информация : Advanced Video Codec
Профиль формата : [email protected]
Параметр CABAC формата : Да
Параметр ReFrames формата : 5 кадров
Идентификатор кодека : V_MPEG4/ISO/AVC
Продолжительность : 28 м.
Битрейт : 3325 Кбит/сек
Ширина : 1280 пикселей
Высота : 720 пикселей
Соотношение сторон : 16:9
Режим частоты кадров : Постоянный
Частота кадров : 23,976 (24000/1001) кадра/сек
Цветовое пространство : YUV
Субдискретизация насыщенности : 4:2:0
Битовая глубина : 8 бит
Тип развёртки : Прогрессивная
Бит/(Пиксели*Кадры) : 0.150
Размер потока : 685 Мбайт (78%)
Библиотека кодирования : x264 core 148 r2665 a01e339
Настройки программы : cabac=1 / ref=5 / deblock=1:-3:-3 / analyse=0x3:0x113 / me=umh / subme=9 / psy=1 / psy_rd=1.00:0.00 / mixed_ref=1 / me_range=16 / chroma_me=1 / trellis=2 / 8x8dct=1 / cqm=0 / deadzone=21,11 / fast_pskip=1 / chroma_qp_offset=-2 / threads=12 / lookahead_threads=2 / sliced_threads=0 / nr=0 / decimate=1 / interlaced=0 / bluray_compat=0 / constrained_intra=0 / bframes=3 / b_pyramid=2 / b_adapt=2 / b_bias=0 / direct=3 / weightb=1 / open_gop=0 / weightp=2 / keyint=250 / keyint_min=23 / scenecut=40 / intra_refresh=0 / rc_lookahead=50 / rc=crf / mbtree=1 / crf=18.0 / qcomp=0.60 / qpmin=0 / qpmax=69 / qpstep=4 / ip_ratio=1.40 / aq=1:1.00
Язык : Spanish
Default : Да
Forced : Нет
Цветовой диапазон : Limited
Коэффициенты матрицы : BT.709
Statistics Tags Issue : mkvmerge v8.9.0 ('Father Daughter') 32bit 2016-04-01 08:44:13 / mkvmerge v2.3.0 ('Freak U') built on Sep 8 2008 18:32:16 2016-04-03 22:56:51
FromStats_BitRate : 3406068
FromStats_Duration : 00:28:48.936000000
FromStats_FrameCount : 41453
FromStats_StreamSize : 736109336
Аудио #1
Идентификатор : 2
Формат : AC-3
Формат/Информация : Audio Coding 3
Расширение режима : CM (complete main)
Параметр Endianness формата : Big
Идентификатор кодека : A_AC3
Продолжительность : 28 м.
Вид битрейта : Постоянный
Битрейт : 192 Кбит/сек
Каналы : 2 канала
Расположение каналов : Front: L R
Частота : 48,0 КГц
Частота кадров : 31,250 кадров/сек (1536 spf)
Метод сжатия : С потерями
Размер потока : 39,6 Мбайт (5%)
Язык : Russian
Default : Да
Forced : Нет
Аудио #2
Идентификатор : 3
Формат : AC-3
Формат/Информация : Audio Coding 3
Расширение режима : CM (complete main)
Параметр Endianness формата : Big
Идентификатор кодека : A_AC3
Продолжительность : 28 м.
Вид битрейта : Постоянный
Битрейт : 640 Кбит/сек
Каналы : 6 каналов
Расположение каналов : Front: L C R, Side: L R, LFE
Частота : 48,0 КГц
Частота кадров : 31,250 кадров/сек (1536 spf)
Метод сжатия : С потерями
Размер потока : 132 Мбайт (15%)
Язык : English
Default : Нет
Forced : Нет
Statistics Tags Issue : mkvmerge v8.9.0 ('Father Daughter') 32bit 2016-04-01 08:44:13 / mkvmerge v2.3.0 ('Freak U') built on Sep 8 2008 18:32:16 2016-04-03 22:56:51
FromStats_BitRate : 640000
FromStats_Duration : 00:28:48.928000000
FromStats_FrameCount : 54029
FromStats_StreamSize : 138314240
Download / Скачать

Хотите скачать бесплатно? Зарегистрируйтесь на сайте (ссылка на регистрацию). Pirat.ca - самый быстрый торрент трекер в рунете!

Как скачивать  ·   Что такое торрент  ·   Рейтинг и ограничения

somik ®

Легенда

26621

Пост 03-Ноя-2016 10:29 (спустя 2 минуты)

[Q] 

Я сам не любитель ситкомов, но мимо Сэма Элиота и Эштона Катчера проити не смог... aa

_________________
Всё когда-нибудь уже было... В интернете!
[Профиль]  [ЛС] 
Показать сообщения:    
Ответить на тему

Текущее время: Сегодня 14:10

Часовой пояс: GMT + 4



Вы не можете начинать темы
Вы не можете отвечать на сообщения
Вы не можете редактировать свои сообщения
Вы не можете удалять свои сообщения
Вы не можете голосовать в опросах
Вы не можете прикреплять файлы к сообщениям
Вы не можете скачивать файлы

▼ Вниз