ML
     
  Уважаемый Гость!
Вы можете поддержать проект и зарегистрироваться у наших партнеров - онлайн-стратегия MyLands. При регистрации в игре Вы получите код, который сможете активировать после регистрации на pirat.ca и получить 1000 дублонов.

Ваш код:
1a5b0a965618b2c406d4279ec9924ee6282c60cf
 
     

Агата Рейзин / Agatha Raisin / Сезон: 1 / Серии: 8 из 8 (Джеффри Сакс / Geoffrey Sax, ...) [2016 г., комедия, детектив, HDTVRip] VO (Lord32x Studio)

Ответить на тему
 
Автор
Сообщение

Пост 03-Ноя-2016 19:42

[Q] 

somik

Легенда

-Агата Рейзин / Agatha Raisin-- Производство: Великобритания
Жанр: комедия, детектив
Год выпуска: 2016 г.
Продолжительность: 00:44:00
Мировая премьера: 7 июня 2016
Перевод: Любительский (одноголосый, закадровый) [Lord32x Studio]
Режиссер: Джеффри Сакс / Geoffrey Sax, ...-В ролях: Эшли Дженсен, Джэми Гловер, Кэти Уикс, Мэтью Хорн, Люси Лиманн, Джун Уотсон, Тим Штерн-Описание: Профессионал в области пиара, Агата Рэйзин вновь возвращается в роли неуёмного сыщика, чтобы раскрыть серию загадочных убийств.-
Качество видео: HDTVRip
Контейнер: AVI
Видео кодек: XviD
Аудио кодек: AC3
Видео: 720x400 (1.80:1), 25 fps, XviD build 50 ~1941 kbps avg, 0.27 bit/pixel
Аудио: 48 kHz, AC3 Dolby Digital, 3/2 (L,C,R,l,r) + LFE ch, ~384 kbps
Cубтитры: отсутствуют
Общее
Полное имя : D:\D\Агата Рэйзин (2016)\Agatha Raisin.S01.2016.HDTVRip.[pirat.ca]\Agatha.Raisin.S01E01.HDTVRip.Lord32x.avi
Формат : AVI
Формат/Информация : Audio Video Interleave
Размер файла : 749 Мбайт
Продолжительность : 44 м.
Общий поток : 2336 Кбит/сек
Программа кодирования : VirtualDubMod 1.5.10.3 | www.virtualdub-fr.org || (build 2550/release)
Библиотека кодирования : VirtualDubMod build 2550/release
Видео
Идентификатор : 0
Формат : MPEG-4 Visual
Профиль формата : Advanced [email protected]
Параметр BVOP формата : 1
Параметр QPel формата : Нет
Параметр GMC формата : Без точки перехода
Параметр матрицы формата : Default (H.263)
Идентификатор кодека : XVID
Идентификатор кодека/Подсказка : XviD
Продолжительность : 44 м.
Битрейт : 1942 Кбит/сек
Ширина : 720 пикселей
Высота : 400 пикселей
Соотношение сторон : 16:9
Частота кадров : 25,000 кадров/сек
Цветовое пространство : YUV
Субдискретизация насыщенности : 4:2:0
Битовая глубина : 8 бит
Тип развёртки : Прогрессивная
Метод сжатия : С потерями
Бит/(Пиксели*Кадры) : 0.270
Размер потока : 622 Мбайт (83%)
Библиотека кодирования : XviD 1.2.1 (UTC 2008-12-04)
Аудио
Идентификатор : 1
Формат : AC-3
Формат/Информация : Audio Coding 3
Расширение режима : CM (complete main)
Параметр Endianness формата : Big
Идентификатор кодека : 2000
Продолжительность : 44 м.
Вид битрейта : Постоянный
Битрейт : 384 Кбит/сек
Каналы : 6 каналов
Расположение каналов : Front: L C R, Side: L R, LFE
Частота : 48,0 КГц
Частота кадров : 31,250 кадров/сек (1536 spf)
Метод сжатия : С потерями
Размер потока : 123 Мбайт (16%)
Выравнивание : Разделение по промежуткам
Продолжительность промежутка : 40 мс. (1,00 видеокадр)
Время предзагрузки промежутка : 500 мс.
Download / Скачать

Хотите скачать бесплатно? Зарегистрируйтесь на сайте (ссылка на регистрацию). Pirat.ca - самый быстрый торрент трекер в рунете!

Как скачивать  ·   Что такое торрент  ·   Рейтинг и ограничения

somik ®

Легенда

26837

Пост 03-Ноя-2016 19:46 (спустя 3 минуты)

[Q] 

Очень даже неплохо. А перевод - хорош для любительского.

_________________
Всё когда-нибудь уже было... В интернете!
[Профиль]  [ЛС] 

Андрей1968

Корсар

29

Пост 04-Ноя-2016 01:16 (спустя 5 часов)

[Q] 

очень жаль,что на кнопочку спасибо можно нажать всего один раз. Спасибо!!! Всем качать!!!
[Профиль]  [ЛС] 
Показать сообщения:    
Ответить на тему

Текущее время: Сегодня 23:48

Часовой пояс: GMT + 4



Вы не можете начинать темы
Вы не можете отвечать на сообщения
Вы не можете редактировать свои сообщения
Вы не можете удалять свои сообщения
Вы не можете голосовать в опросах
Вы не можете прикреплять файлы к сообщениям
Вы не можете скачивать файлы

▼ Вниз