ML
     
  Уважаемый Гость!
Вы можете поддержать проект и зарегистрироваться у наших партнеров - онлайн-стратегия MyLands. При регистрации в игре Вы получите код, который сможете активировать после регистрации на pirat.ca и получить 1000 дублонов.

Ваш код:
93dbf9fbdfa06c41d3b5a2c3921149ba36168c41
 
     

Сшиватели / Stitchers / Сезон: 2 / Серии: 10 из 10 (Дженис Кук-Леонард / Janice Cooke-Leonard, ...) [2016 г., фантастика, HDTVRip] DVO (LevshaFilm)

Ответить на тему
 
Автор
Сообщение

Пост 04-Ноя-2016 03:40

[Q] 

somik

Легенда

-Сшиватели / Stitchers-- Производство: США
Жанр: фантастика
Год выпуска: 2016 г.
Продолжительность: 00:41:20
Мировая премьера: 22 марта 2016
Перевод: Любительский (двухголосый, закадровый) [LevshaFilm]
Режиссер: Дженис Кук-Леонард / Janice Cooke-Leonard, ...-В ролях: Кайл Харрис, Эллисон Скальотти, Росс Курт Ле, Ритеш Раджан, Салли Ричардсон-Уитфилд, Челси Винсент, Хьюго Армстронг-Описание: В центре сюжета молодая женщина, работающая на секретную организацию, «сшивает» своё сознание с недавно умершими, чтобы раскрывать убийства.-
Качество видео: HDTVRip
Контейнер: AVI
Видео кодек: XviD
Аудио кодек: MP3
Видео: 720x400 (1.80:1), 25 fps, XviD build 50 ~1369 kbps avg, 0.19 bit/pixel
Аудио: 44.100 kHz, MPEG Layer 3, 2 ch, ~128.00 kbps avg
Cубтитры: отсутствуют
Общее
Полное имя : F:\Сшиватели Stitchers [S02]2016\Stitchers.S02.2016.[pirat.ca]\Stitchers.s02e01.Levsha.avi
Формат : AVI
Формат/Информация : Audio Video Interleave
Размер файла : 446 Мбайт
Продолжительность : 41 м.
Общий поток : 1507 Кбит/сек
Программа кодирования : VirtualDubMod 1.5.10.3 | www.virtualdub-fr.org || (build 2550/release)
Библиотека кодирования : VirtualDubMod build 2550/release
Видео
Идентификатор : 0
Формат : MPEG-4 Visual
Профиль формата : Advanced [email protected]
Параметр BVOP формата : 2
Параметр QPel формата : Нет
Параметр GMC формата : Без точки перехода
Параметр матрицы формата : Default (MPEG)
Идентификатор кодека : XVID
Идентификатор кодека/Подсказка : XviD
Продолжительность : 41 м.
Битрейт : 1369 Кбит/сек
Ширина : 720 пикселей
Высота : 400 пикселей
Соотношение сторон : 16:9
Частота кадров : 25,000 кадров/сек
Цветовое пространство : YUV
Субдискретизация насыщенности : 4:2:0
Битовая глубина : 8 бит
Тип развёртки : Прогрессивная
Метод сжатия : С потерями
Бит/(Пиксели*Кадры) : 0.190
Размер потока : 406 Мбайт (91%)
Библиотека кодирования : XviD 1.2.1 (UTC 2008-12-04)
Аудио
Идентификатор : 1
Формат : MPEG Audio
Версия формата : Version 1
Профиль формата : Layer 3
Идентификатор кодека : 55
Идентификатор кодека/Подсказка : MP3
Продолжительность : 41 м.
Вид битрейта : Постоянный
Битрейт : 128 Кбит/сек
Каналы : 2 канала
Частота : 44,1 КГц
Метод сжатия : С потерями
Размер потока : 37,9 Мбайт (8%)
Выравнивание : Разделение по промежуткам
Продолжительность промежутка : 40 мс. (1,00 видеокадр)
Время предзагрузки промежутка : 500 мс.
Библиотека кодирования : LAME3.99r
Настройки программы : -m s -V 4 -q 2 -lowpass 17 -b 128
Download / Скачать

Хотите скачать бесплатно? Зарегистрируйтесь на сайте (ссылка на регистрацию). Pirat.ca - самый быстрый торрент трекер в рунете!

Как скачивать  ·   Что такое торрент  ·   Рейтинг и ограничения

somik ®

Легенда

26893

Пост 04-Ноя-2016 03:42 (спустя 1 минута)

[Q] 

Извините: есть немного рекламы КОЗЛИНО!!! ca

_________________
Всё когда-нибудь уже было... В интернете!
[Профиль]  [ЛС] 
Показать сообщения:    
Ответить на тему

Текущее время: Сегодня 20:22

Часовой пояс: GMT + 4



Вы не можете начинать темы
Вы не можете отвечать на сообщения
Вы не можете редактировать свои сообщения
Вы не можете удалять свои сообщения
Вы не можете голосовать в опросах
Вы не можете прикреплять файлы к сообщениям
Вы не можете скачивать файлы

▼ Вниз