ML
     
  Уважаемый Гость!
Вы можете поддержать проект и зарегистрироваться у наших партнеров - онлайн-стратегия MyLands. При регистрации в игре Вы получите код, который сможете активировать после регистрации на pirat.ca и получить 1000 дублонов.

Ваш код:
bb0cb47ee786a33f751af5a500dd264c9487bfac
 
     

Селфи / Selfie / Сезон: 1 / Серии: 13 из 13 (Эрик Аппель / Eric Appel, ...) [2014 г., комедия, HDTVRip] MVO (BaibaKo) + Original (Eng)

Ответить на тему
 
Автор
Сообщение

Пост 05-Ноя-2016 04:50

[Q] 

somik

Легенда

-Селфи / Selfie-- Производство: США, Warner Bros. Television
Жанр: комедия
Год выпуска: 2014 г.
Продолжительность: 00:21:30
Мировая премьера: 19 августа 2014
Перевод: Профессиональный (многоголосый, закадровый) [BaibaKo]
Оригинальный аудиопоток: английский
Режиссер: Эрик Аппель / Eric Appel, ...-В ролях: Карен Гиллан, Джон Чо, Дэвид Хэрвуд, Эллин Рэйчел, Тим Пепер, Давайн Джой Рэндольф, Блейк Худ, Мэттью Кардаропле, Дженнифер Хэсти-Описание: Элиза Дули — звезда Инстаграма, у неё 263,000 подписчиков, которые следят за каждым её постом, твитом или селфи. Но однажды на неё снисходит озарение: быть друзьями в социальных сетях — это совсем не то же самое, что иметь настоящих друзей. Она просит гуру маркетинга Генри научить её общаться с людьми в реальном мире.-
Качество видео: HDTVRip
Контейнер: AVI
Видео кодек: XviD
Аудио кодек: MP3
Видео: 720x400 (1.80:1), 23.976 fps, XviD build 50 ~1502 kbps avg, 0.22 bit/pixel
Аудио: 48 kHz, MPEG Layer 3, 2 ch, ~192.00 kbps avg
Аудио #2: 48 kHz, MPEG Layer 3, 2 ch, ~192.00 kbps avg
Cубтитры: отсутствуют
Телефон продолжение руки
Сначала начал смотреть этот сериал, только из-за Карен Гиллан которая была когда то спутницей Доктора, но спустя пару серий понял, что он достаточно актуален в наше время.
«Люди делятся на два типа, те кто с телефонами, и те кто без». Всё чаще люди «прячутся» за экранами своих гаджетов и не перестают видеть суть жизни. Заразность таких вещей как Интсаграм, Твиттер, Фейсбук, ВК(который, конечно же, не упоминается), и тому подобные соц. сети, ярко выражена в этом коротком и забавном сериале «Selfie». Так же он показывает, что хотя бы один настоящий друг лучше, чем всё то несчётное количество «друзей» в интернете. Очень понравилась игра актёров, основных и второстепенных. Жаль что сериал состоит всего из 13 серий, хотя и этих серий хватило, что бы по достоинству оценить сериал.
10 из 10
I`m looking at me, Hey look, it`s me
Что можно сказать о сериале, который закрывают после 1 сезона? То что он замечательный! Это тот сериал, который приятно смотреть после тяжелого дня, просто диван, чашка чая и Селфи. Это тот сериал, который правда смешной и где высмеивают морали нынешней молодежи.
И конечно этот сериал показал хорошую актерскую игру всех, без исключения актеров.
Приятно смотреть на Карен Гиллан, которую можно видеть в Стражах Галактики, где она сыграла шикарную Небулу. Для меня ее амплуа была неожиданна, так как я всегда думала что она останется Амелией Понд, девушкой которая ждала, но справилась с этой ролью. Безусловно в этом сериале есть недостатки, но они настолько незначительны, что на них просто не обращаешь внимание.
А Джон Чо замечателен в своей роли, он справился на ура, это его роль.
Всем советую смотреть сериал Селфи, может увидите в Элизы Дули саму себя.
10 из 10
Замечательный сериал
На одном дыхании
Если честно, меня удивляет, почему такие лёгкие сериалы в юмористической форме отображающие все реалии повседневной жизни, никак не могут набрать популярность и занять достойное место в списке топов. Неужели банальные сериалы про врачей и детективов никого не утомили? Я всё никак не могу понять, почему одноформатные киноленты с избитым сюжетом выигрывают у таких вот незатейливых сериалов с огромным перевесом… Наверное, люди просто бояться посмотреть на то, как они выглядят со стороны, а сериал «Селфи» именно это и демонстрирует.
«Селфи» — это, не побоюсь этого слова, ЛУЧШИЙ, сериал за последний год из всех новинок, что я для себя открыла. Он действительно смешной, и при этом без всякой вульгарности и пошлости. Да, конечно английским юмором это тоже не назовёшь, но шутки просты и понятны, по крайней мере, современному обществу, активно пользующемуся социальными сетями и различными гаджитами. При этом, юмор ни в коем разе не может оскорбить чьих либо чувств.
Этот сериал не просто обозревает современное поведение людей в жизни и интернете, но и несёт в себе мораль, и старается, нас, зрителей, чему-то научить. Это очень приятная деталь. Так же, конечно, не обойтись без главной сюжетной линии между двумя главными героями, за которыми очень приятно наблюдать, ведь в каждом из них можно найти что-то от себя самого. В принципе, в целом все персонажи в сериале очень яркие и колоритные, что даже, наверное, гиперболизировано, для большего эффекта.
В общем и целом сериал лёгкий и приятный к просмотру. Смотрится на одном дыхании, серия за серией. Мне конечно не хватило…очень жаль что его не оценили. Всем советую!
10 из 10
Общее
Полное имя : C:\герои 7\Селфи Selfie (2014)\Selfie.S01.2014.HDTVRip.[pirat.ca]\Selfie.s01e01.HDTVRip.avi
Формат : AVI
Формат/Информация : Audio Video Interleave
Размер файла : 356 Мбайт
Продолжительность : 26 м.
Общий поток : 1902 Кбит/сек
Программа кодирования : VirtualDubMod 1.5.10.2 (build 2540/release)
Библиотека кодирования : VirtualDubMod build 2540/release
Видео
Идентификатор : 0
Формат : MPEG-4 Visual
Профиль формата : Advanced [email protected]
Параметр BVOP формата : 2
Параметр QPel формата : Нет
Параметр GMC формата : Без точки перехода
Параметр матрицы формата : Default (H.263)
Идентификатор кодека : XVID
Идентификатор кодека/Подсказка : XviD
Продолжительность : 26 м.
Битрейт : 1504 Кбит/сек
Ширина : 720 пикселей
Высота : 400 пикселей
Соотношение сторон : 16:9
Частота кадров : 23,976 (24000/1001) кадра/сек
Цветовое пространство : YUV
Субдискретизация насыщенности : 4:2:0
Битовая глубина : 8 бит
Тип развёртки : Прогрессивная
Метод сжатия : С потерями
Бит/(Пиксели*Кадры) : 0.218
Размер потока : 281 Мбайт (79%)
Библиотека кодирования : XviD 1.2.1 (UTC 2008-12-04)
Аудио #1
Идентификатор : 1
Формат : MPEG Audio
Версия формата : Version 1
Профиль формата : Layer 3
Режим : Joint stereo
Расширение режима : MS Stereo
Идентификатор кодека : 55
Идентификатор кодека/Подсказка : MP3
Продолжительность : 26 м.
Вид битрейта : Постоянный
Битрейт : 192 Кбит/сек
Каналы : 2 канала
Частота : 48,0 КГц
Метод сжатия : С потерями
Размер потока : 35,9 Мбайт (10%)
Выравнивание : Соединение по промежуткам
Продолжительность промежутка : 42 мс. (1,00 видеокадр)
Время предзагрузки промежутка : 504 мс.
Библиотека кодирования : LAME3.99.5ЄЄЄ
Аудио #2
Идентификатор : 2
Формат : MPEG Audio
Версия формата : Version 1
Профиль формата : Layer 3
Режим : Joint stereo
Расширение режима : MS Stereo
Идентификатор кодека : 55
Идентификатор кодека/Подсказка : MP3
Продолжительность : 26 м.
Вид битрейта : Постоянный
Битрейт : 192 Кбит/сек
Каналы : 2 канала
Частота : 48,0 КГц
Метод сжатия : С потерями
Размер потока : 35,9 Мбайт (10%)
Выравнивание : Соединение по промежуткам
Продолжительность промежутка : 42 мс. (1,00 видеокадр)
Время предзагрузки промежутка : 504 мс.
Download / Скачать

Хотите скачать бесплатно? Зарегистрируйтесь на сайте (ссылка на регистрацию). Pirat.ca - самый быстрый торрент трекер в рунете!

Как скачивать  ·   Что такое торрент  ·   Рейтинг и ограничения

Показать сообщения:    
Ответить на тему

Текущее время: Сегодня 02:19

Часовой пояс: GMT + 4



Вы не можете начинать темы
Вы не можете отвечать на сообщения
Вы не можете редактировать свои сообщения
Вы не можете удалять свои сообщения
Вы не можете голосовать в опросах
Вы не можете прикреплять файлы к сообщениям
Вы не можете скачивать файлы

▼ Вниз