ML
     
  Уважаемый Гость!
Вы можете поддержать проект и зарегистрироваться у наших партнеров - онлайн-стратегия MyLands. При регистрации в игре Вы получите код, который сможете активировать после регистрации на pirat.ca и получить 1000 дублонов.

Ваш код:
4855957e17f50c5c1236a0f8c4492b2b0bba00a0
 
     

Римская Испания, легенда / Hispania, la leyenda / 3 сезона из 3 / 9 серий из 9 (Хорхе Санчес-Кабесудо / Jorge Sánchez-Cabezudo, ...) [2010 г., история, WEB-DL, 720p] MVO [BaiBaKo]

Ответить на тему
 
Автор
Сообщение

Пост 05-Ноя-2016 22:46

[Q] 

somik

Легенда

-Римская Испания, легенда / Hispania, la leyenda-- Производство: Испания
Год выпуска: 2010 - 2012г.г.
Жанр: история
Продолжительность: 01:16:00
Мировая премьера: 25 октября 2010
Перевод: Профессиональный (многоголосый, закадровый) [BaiBaKo]
Режиссер: Хорхе Санчес-Кабесудо / Jorge Sánchez-Cabezudo, ...-В ролях: Роберто Энрикес, Хуан Хосе Бальеста, Натали Поса, Хесус Ольмедо, Мануэла Вельес, Альфонсо Бассаве, Ховик Кеучкерян, Анхела Кремонте, Сержи Мендес, Льюис Омар-Описание: Испанские мятежники, ведомые лидером Вириатом, сражаются против господства Рима. Герои сериала спасают своих жен, мстят за смерть детей, возвращают отобранные земли, всегда бывшие их родным домом. Партизанская война постепенно переходит в открытые сражения, народ объединяется, стремясь освободить Испанию от гнета римлян.-
Качество видео: WEB-DL
Контейнер: MKV
Стандарт разрешения: 720p
Видео кодек: MPEG4 AVC
Аудио кодек: AC3
Видео: 1953 Кбит/с, 1280x720, 24,000 кадра/сек
Аудио: АC3, 2 ch, 384 Кбит/с, 48,0 КГц
Cубтитры: отсутствуют
Просто и со вкусом.
Долгое время я хотела посмотреть этот сериал, но не было возможности, ибо испанский язык для меня — темный лес. И вот однажды нашлись добрые люди и перевели все 20 серий замечательного сериала (субтитры), за что им огромное спасибо!
Как и у многих сериалов первая серия была скучноватой, не особо затянуло, если честно. Продолжила я смотреть через какое-то время и то из-за любимой актрисы. Где-то с 3-4 серии стали появляться первые признаки зависимости и, как говорится, понеслась!
Сюжет сериала тривиален: противостояние двух сторон. Борьба простых испанских людей с римским претором Гальбой и его многочисленным войском. Бунт одного пастуха постепенно разрастался, вселяя надежду в сердца людей. Не обошлось тут, конечно, и без любовных линий, однако, некоторые из них так и не увидели счастливого конца.
Скажу так: это, конечно, не «Игра Престолов», спец. эффектов тут поменьше будет, да и сцены с битвами не настолько эпичные, но, со временем, перестаешь обращать на это внимание, так как все остальное шикарно.
7 из 10
Общее
Уникальный идентификатор : 233456572092784031918589661919458858506 (0xAFA219ACA78F295B9D2D4DFBE4E3960A)
Полное имя : F:\Римская Испания, легенда Hispania, la leyenda (2010-2012)\Hispania, la leyenda.s01.720p.WEBDL.BaibaKo.[pirat.ca]\Hispania, la leyenda.s01e01.720p.WEBDL.Rus.BaibaKo.tv.[pirat.ca].mkv
Формат : Matroska
Версия формата : Version 2
Размер файла : 1,28 Гбайт
Продолжительность : 1 ч. 16 м.
Общий поток : 2388 Кбит/сек
Дата кодирования : UTC 2016-11-05 17:48:52
Программа кодирования : mkvmerge v5.3.0 ('I could have danced') built on Feb 9 2012 10:38:07
Библиотека кодирования : libebml v1.2.3 + libmatroska v1.3.0
Видео
Идентификатор : 1
Формат : AVC
Формат/Информация : Advanced Video Codec
Профиль формата : [email protected]
Параметр CABAC формата : Нет
Параметр ReFrames формата : 1 кадр
Идентификатор кодека : V_MPEG4/ISO/AVC
Продолжительность : 1 ч. 16 м.
Битрейт : 2000 Кбит/сек
Ширина : 1280 пикселей
Высота : 720 пикселей
Соотношение сторон : 16:9
Режим частоты кадров : Постоянный
Частота кадров : 24,000 кадра/сек
Цветовое пространство : YUV
Субдискретизация насыщенности : 4:2:0
Битовая глубина : 8 бит
Тип развёртки : Прогрессивная
Бит/(Пиксели*Кадры) : 0.090
Размер потока : 1,05 Гбайт (82%)
Библиотека кодирования : x264 core 116 r2019 9cc407d
Default : Нет
Forced : Нет
Statistics Tags Issue : mkvmerge v9.3.1 ('Mask Machine') 64bit 2016-10-09 00:58:19 / mkvmerge v5.3.0 ('I could have danced') built on Feb 9 2012 10:38:07 2016-11-05 17:48:52
FromStats_BitRate : 2006630
FromStats_Duration : 01:17:04.016000000
FromStats_FrameCount : 110972
FromStats_StreamSize : 1159836256
Аудио
Идентификатор : 2
Формат : AC-3
Формат/Информация : Audio Coding 3
Расширение режима : CM (complete main)
Параметр Endianness формата : Big
Идентификатор кодека : A_AC3
Продолжительность : 1 ч. 16 м.
Вид битрейта : Постоянный
Битрейт : 384 Кбит/сек
Каналы : 2 канала
Расположение каналов : Front: L R
Частота : 48,0 КГц
Частота кадров : 31,250 кадров/сек (1536 spf)
Метод сжатия : С потерями
Размер потока : 211 Мбайт (16%)
Язык : Russian
Default : Да
Forced : Нет
Statistics Tags Issue : mkvmerge v9.3.1 ('Mask Machine') 64bit 2016-10-09 00:58:19 / mkvmerge v5.3.0 ('I could have danced') built on Feb 9 2012 10:38:07 2016-11-05 17:48:52
FromStats_BitRate : 384000
FromStats_Duration : 01:17:04.224000000
FromStats_FrameCount : 144507
FromStats_StreamSize : 221962752
Download / Скачать

Хотите скачать бесплатно? Зарегистрируйтесь на сайте (ссылка на регистрацию). Pirat.ca - самый быстрый торрент трекер в рунете!

Как скачивать  ·   Что такое торрент  ·   Рейтинг и ограничения



Последний раз редактировалось: somik (2016-11-05 23:33), всего редактировалось 1 раз

somik ®

Легенда

27243

Пост 05-Ноя-2016 22:53 (спустя 7 минут)

[Q] 

Извините: всю рекламу КОЗЛИНО удалить не получилось!!! ca

_________________
Всё когда-нибудь уже было... В интернете!
[Профиль]  [ЛС] 

kugesan

56719

Пост 05-Ноя-2016 23:37 (спустя 44 минуты)

[Q] 

Недокроп

_________________

В мире две бесконечности: вселенная и человеческая глупость - Альберт Эйнштен
«Можно вытащить человека из грязи, но нельзя вытащить грязь из человека»!
[Профиль]  [ЛС] 
Показать сообщения:    
Ответить на тему

Текущее время: Сегодня 06:14

Часовой пояс: GMT + 4



Вы не можете начинать темы
Вы не можете отвечать на сообщения
Вы не можете редактировать свои сообщения
Вы не можете удалять свои сообщения
Вы не можете голосовать в опросах
Вы не можете прикреплять файлы к сообщениям
Вы не можете скачивать файлы

▼ Вниз