ML
     
  Уважаемый Гость!
Вы можете поддержать проект и зарегистрироваться у наших партнеров - онлайн-стратегия MyLands. При регистрации в игре Вы получите код, который сможете активировать после регистрации на pirat.ca и получить 1000 дублонов.

Ваш код:
69f316be79867e9bf99caee9682d20bb11964507
 
     

Атланта / Atlanta / Сезон: 1 / Серии: 10 из 10 (Дональд Гловер / Donald Glover, ...) [2016 г., драма, комедия, WEB-DL, 720p] MVO (NewStudio) + Original (Eng)

Ответить на тему
 
Автор
Сообщение

Пост 12-Ноя-2016 04:36

[Q] 

somik

Легенда

-Атланта / Atlanta-- Производство: США, FX Productions
Жанр: драма, комедия
Год выпуска: 2016 г.
Продолжительность: 00:25:00
Мировая премьера: 6 сентября 2016
Российская премьера: 5 ноября 2016
Перевод: Профессиональный (многоголосый, закадровый) [NewStudio]
Оригинальный аудиопоток: английский
Режиссер: Дональд Гловер / Donald Glover, ...-В ролях: Дональд Гловер, Брэт Е. Бенсон, Карра Грир, Эмметт Хантер, Райан Ньютон, Лейкит Стэнфилд, Анджела Рэй, Терри Эбни, Джейн Адамс, Зак Аль-Чоклачи и др.-Описание: Главные герои этого сериала — два брата, которые мечтают о большом музыкальном будущем. Эти молодые люди пытаются добиться успеха, чтобы попасть на большую сцену. Главные герои тренируются в умении связывать строчки в рифмы и грамотно панчить. У них уже появляется типичный для рэперов флоу и грув. Однако жизнь молодых людей весьма непростая. Им приходится бороться за место под солнцем в одном из самых амбициозных городов. Атланта — место, где никому успех не гарантирован.-
Качество видео: WEB-DL
Контейнер: MKV
Стандарт разрешения: 720p
Видео кодек: MPEG4 AVC
Аудио кодек: AC3
Видео: 1280x720 (16:9), ~4023 Kbps
Аудио: AC3, 384 kbps, 6 ch, 48 kHz
Аудио #2: AC3, 384 kbps, 6 ch, 48 kHz
Cубтитры: отсутствуют
Troy and Paper Boi
Музыка как таковая всегда ходила рука об руку с киноискусством. Что сто лет назад, что сейчас мало какой фильм обходится без саундтрека. Но одно дело подобрать правильные композиции под стать тому или иному моменту, что происходит на экране, а совсем другое — что-то снять на эту самую музыкальную тематику. Корифеями в этой области можно считать База Лурмана со своими мюзиклами и Дэмиена Шаззела с гениальной «Одержимостью» и будущим «Ла Ла Лэндом». И так как количество подобного продукта не пестрит разнообразием, значит теоретически на него есть спрос. А если есть спрос, то будет и предложение. Поэтому встречайте, «Атланта».
Для тех, кто не в курсе, шоураннер, продюссер, сценарист и исполнитель главной роли этого сериала, — Дональд Гловер, — человек-мультиталант. Помимо нестандартной кинокарьеры (как сценарист он победил в номинации «Лучший сценарий» за «Студию 30», а как актер запомнился всем своей яркой игрой в «Марсианине» и уже ставшей культовой ролью Троя Барнса в «Сообществе»), он также еще и рэппер, выступающий под псевдонимом Childish Gambino. Если углубляться в творчество данного персонажа и разбирать все по кирпичикам, то можно обнаружить, что мистер Гловер самый настоящий гик и заядлый любитель «интеллектуальных лабиринтов». В рэп-треках его производства можно найти кучу отсылок к актерской карьере, кино в общем и «Сообществу» в частности. А альбом Because The Internet так и вовсе являет собой некий симбиоз между музыкой и сценарием к кинофильму.
Что же из себя представляет «Атланта»? С одной стороны это полу-комедийный, полу-драматический сериал про обыкновенных черных парней, что ставят себе цель стать известными рэп-исполнителями и медленно, но уверенно идут к этой мечте сквозь тернии, звезды, бедноту, наркотики и окружающий низкий уровень жизни обыкновенного американского гетто. Но с другой стороны, как говорится, «дьявол прячется в деталях» и даже подобному сторителлингу авторства Дональда Гловера удастся вас удивить. Стоит только углубиться в каждый аспект сериала и становится ясно в чем заключается ценность «Атланты» — она гармонична во всем. Приятная цветогамма без излишне ярких и ядовитых цветов, приятный хип-хоп саундтрек, который не режет ухо, приятный сценарий, в котором искусно миксуется драма и комедия. Тут даже найдется место щепотке мистики и отсылкам к великому «Твин Пиксу», что привносит элемент новизны и необычности. Персонажи то и дело попадают в забавные ситуации и пока они не менее забавно из них выходят, зрителю абсолютно тонко и ненавязчиво скармливают разного рода проблематики, начиная от темы ответственности, наркотиков и бедности, заканчивая более серьезными вещами, по типу поисков в жизни самих себя и темы смерти. «Атланта» может и не снесет вам голову безумным повествованием или же сумасшедшим экшеном, зато при внимательном просмотре даст намного больше информации о западной культуре, чем любой из существующих на данный момент сериалов. Это тв-шоу предлагает зрителю не только комфортно провести время перед экраном, посмотрев качественный продукт, но и еще расширить свое информационное поле и постичь грани, которые до этого были недоступны. А вот какие именно и насколько глубоко углубляться — каждый решит сам для себя.
На момент выхода четвертой серии канал FX уже заказал создателям второй сезон, что не может не радовать. Можно ли считать «Атланту» magnum opus Гловера или же стоит ждать от этого мультиталанта чего-то еще? Время покажет. Ну а пока что это один из самых лучших сериалов осени, а может и года, который, скорее всего, не станет доступным для массовой аудитории, но своего зрителя уж точно найдет.
9 из 10
Общее
Уникальный идентификатор : 250478363680062406537811833125570836869 (0xBC7060CB5FFA0F8AAC15FD605B0F7985)
Полное имя : F:\Атланта Atlanta (2016)\Atlanta.S01.2016.WEB-DL.720p.NewStudio.[pirat.ca]\Atlanta.s01e01.WEB-DL.720p.NewStudio.mkv
Формат : Matroska
Версия формата : Version 4 / Version 2
Размер файла : 892 Мбайт
Продолжительность : 25 м.
Общий поток : 4888 Кбит/сек
Дата кодирования : UTC 2016-09-08 07:00:26
Программа кодирования : mkvmerge v6.9.1 ('Blue Panther') 64bit built on Apr 18 2014 18:23:38
Библиотека кодирования : libebml v1.3.0 + libmatroska v1.4.1
Видео
Идентификатор : 1
Формат : AVC
Формат/Информация : Advanced Video Codec
Профиль формата : [email protected]
Параметр CABAC формата : Нет
Параметр ReFrames формата : 2 кадра
Идентификатор кодека : V_MPEG4/ISO/AVC
Продолжительность : 25 м.
Битрейт : 4023 Кбит/сек
Ширина : 1280 пикселей
Высота : 720 пикселей
Соотношение сторон : 16:9
Режим частоты кадров : Постоянный
Частота кадров : 23,976 (24000/1001) кадра/сек
Цветовое пространство : YUV
Субдискретизация насыщенности : 4:2:0
Битовая глубина : 8 бит
Тип развёртки : Прогрессивная
Бит/(Пиксели*Кадры) : 0.182
Размер потока : 734 Мбайт (82%)
Язык : English
Default : Да
Forced : Нет
Цветовой диапазон : Limited
Основные цвета : BT.709
Характеристики трансфера : BT.709
Коэффициенты матрицы : BT.709
Аудио #1
Идентификатор : 2
Формат : AC-3
Формат/Информация : Audio Coding 3
Расширение режима : CM (complete main)
Параметр Endianness формата : Big
Идентификатор кодека : A_AC3
Продолжительность : 25 м.
Вид битрейта : Постоянный
Битрейт : 384 Кбит/сек
Каналы : 6 каналов
Расположение каналов : Front: L C R, Side: L R, LFE
Частота : 48,0 КГц
Частота кадров : 31,250 кадров/сек (1536 spf)
Метод сжатия : С потерями
Размер потока : 70,0 Мбайт (8%)
Язык : Russian
Default : Да
Forced : Нет
Аудио #2
Идентификатор : 3
Формат : AC-3
Формат/Информация : Audio Coding 3
Расширение режима : CM (complete main)
Параметр Endianness формата : Big
Идентификатор кодека : A_AC3
Продолжительность : 25 м.
Вид битрейта : Постоянный
Битрейт : 384 Кбит/сек
Каналы : 6 каналов
Расположение каналов : Front: L C R, Side: L R, LFE
Частота : 48,0 КГц
Частота кадров : 31,250 кадров/сек (1536 spf)
Метод сжатия : С потерями
Размер потока : 70,0 Мбайт (8%)
Язык : English
Default : Нет
Forced : Нет
Текст
Идентификатор : 4
Формат : UTF-8
Идентификатор кодека : S_TEXT/UTF8
Идентификатор кодека/Информация : UTF-8 Plain Text
Язык : Russian
Default : Да
Forced : Да
Download / Скачать

Хотите скачать бесплатно? Зарегистрируйтесь на сайте (ссылка на регистрацию). Pirat.ca - самый быстрый торрент трекер в рунете!

Как скачивать  ·   Что такое торрент  ·   Рейтинг и ограничения

Показать сообщения:    
Ответить на тему

Текущее время: Сегодня 14:28

Часовой пояс: GMT + 4



Вы не можете начинать темы
Вы не можете отвечать на сообщения
Вы не можете редактировать свои сообщения
Вы не можете удалять свои сообщения
Вы не можете голосовать в опросах
Вы не можете прикреплять файлы к сообщениям
Вы не можете скачивать файлы

▼ Вниз