ML
     
  Уважаемый Гость!
Вы можете поддержать проект и зарегистрироваться у наших партнеров - онлайн-стратегия MyLands. При регистрации в игре Вы получите код, который сможете активировать после регистрации на pirat.ca и получить 1000 дублонов.

Ваш код:
1a5b0a965618b2c406d4279ec9924ee6282c60cf
 
     

Полдарк / Poldark / Сезон: 2 / Серии: 10 из 10 (Эдвард Базалгетт / Edward Bazalgette, ...) [2016 г., драма, мелодрама, история, HDTV, 720p] MVO (IdeaFilm) + Original (Eng)

Ответить на тему
 
Автор
Сообщение

Пост 12-Ноя-2016 06:54

[Q] 

somik

Легенда

-Полдарк / Poldark-- Производство: Великобритания, Mammoth Screen
Жанр: драма, мелодрама, история
Год выпуска: 2016 г.
Продолжительность: 00:59:00
Мировая премьера: 4 сентября 2016
Перевод: Профессиональный (многоголосый, закадровый) [IdeaFilm]
Оригинальный аудиопоток: английский
Режиссер: Эдвард Базалгетт / Edward Bazalgette, ...-В ролях: Эйдан Тёрнер, Элинор Томлинсон, Хейда Рид, Кайл Соллер, Руби Бенталл, Бети Эдни, Джек Фартинг, Фил Дэвис, Уоррен Кларк-Описание: Росс Полдарк возвращается домой с войны, надеясь на спокойную и счастливую жизнь в кругу семьи, и обнаруживает, что отец умер, домом управляют слуги-пьяницы, а невеста Элизабет, уверенная, что он погиб, обручилась с его кузеном.-
Качество видео: HDTV
Контейнер: MKV
Стандарт разрешения: 720p
Видео кодек: MPEG4 AVC
Аудио кодек: AC3
Видео: ~ 3600 Кбит/с, 1280x720, 23,976 (24000/1001) кадра/сек
Аудио: AC3, 2 ch, 192 Кбит/с, 48,0 КГц
Аудио #2: AC3, 2 ch, 192 Кбит/с, 48,0 КГц
Cубтитры: отсутствуют
Росс =Огонь и пламя
В 2015 году нашему вниманию был представлен очередной продукт BBC production — «Полдарк». Видимо, сериал «Чужестранка» задал очередной тренд в киноинтустрии. И знаете… Это здорово!
В целом Полдарк — это фильм о семье, о их мощи и слабости, о 200-веком шахтном деле, о жизненных переменах, о борьбе законом и коррупцией того времени.
Безусловно, главный герой сериала — это Росс Полдарк, который после войны координально поменял свои взгляды на жизнь. Хоть война и сделала его серьезным и думающим мужчиной, в нем многое осталось неизменно: оптимизм, вспыльчивость, любовь ко всем людям, сострадание и эгоизм. Дерзкий Росс Полдарк всегда идет вперед и всегда готов к бою.
Горячо мной любимый ещё с Отчаянных романтиков, Эйдан Тернер с ролью справился на все «5+». Гениальный актер современной Ирландии.
Также внимание привлекла Элинор Томлинсон, исполняющая роль Демельзы. Девушка на протяжении 8 серий не переставала излучать солнечную радость. Элинор всего 23 года, а она показывает нам эмоции женщины, прожившее многое… очень многое.
Для меня в сериале есть ещё один очень интересный и противоречивый персонаж — Джордж Варлиген. Серию книг Уинстона Грэма не читала, но что-то подсказывает, что данный герой перед нами ещё раскроется. Джордж — разбогатевший кузнец, который, на мой взгляд, всего лишь ищет дружбы… настоящей дружбы с Россом Полдарком. Однако презрение последнего не позволяет героям сблизится, что приводит к некрасивым и нечестным нападкам со стороны Джорджа.
Сериал обязателен к просмотру. Уверена, что Вы в очередной раз не сможете оторвать глаз от великолепно снятых пейзажов Великой Британии.
10 из 10
Общее
Уникальный идентификатор : 184138259320139552112789969584065219145 (0x8A87BD1EEE014AC3B4F0D67329520A49)
Полное имя : F:\Полдарк Poldark [2 сезон] (2016) HDTV 720p IdeaFilm\Poldark.S02.HDTV.720p.[pirat.ca]\Poldark.S02E01.HDTV.720p-IDEAFILM.mkv
Формат : Matroska
Версия формата : Version 2
Размер файла : 1,59 Гбайт
Продолжительность : 58 м.
Режим общего битрейта : Переменный
Общий поток : 3913 Кбит/сек
Дата кодирования : UTC 2016-11-12 01:09:25
Программа кодирования : mkvmerge v5.3.0 ('I could have danced') built on Feb 9 2012 10:38:07
Библиотека кодирования : libebml v1.2.3 + libmatroska v1.3.0
Видео
Идентификатор : 1
Формат : AVC
Формат/Информация : Advanced Video Codec
Профиль формата : [email protected]
Параметр CABAC формата : Да
Параметр ReFrames формата : 3 кадра
Идентификатор кодека : V_MPEG4/ISO/AVC
Продолжительность : 58 м.
Вид битрейта : Переменный
Битрейт : 3451 Кбит/сек
Максимальный битрейт : 3600 Кбит/сек
Ширина : 1280 пикселей
Высота : 720 пикселей
Соотношение сторон : 16:9
Режим частоты кадров : Постоянный
Частота кадров : 23,976 (24000/1001) кадра/сек
Стандарт вещания : NTSC
Цветовое пространство : YUV
Субдискретизация насыщенности : 4:2:0
Битовая глубина : 8 бит
Тип развёртки : Прогрессивная
Бит/(Пиксели*Кадры) : 0.156
Размер потока : 1,40 Гбайт (88%)
Язык : English
Default : Да
Forced : Нет
Цветовой диапазон : Limited
Основные цвета : BT.709
Характеристики трансфера : BT.709
Коэффициенты матрицы : BT.709
Statistics Tags Issue : mkvmerge v9.2.0 ('Photograph') 64bit 2016-09-25 20:10:38 / mkvmerge v5.3.0 ('I could have danced') built on Feb 9 2012 10:38:07 2016-11-12 01:09:25
FromStats_BitRate : 3524072
FromStats_Duration : 00:58:27.921000000
FromStats_FrameCount : 84107
FromStats_StreamSize : 1545270855
Аудио #1
Идентификатор : 2
Формат : AC-3
Формат/Информация : Audio Coding 3
Расширение режима : CM (complete main)
Параметр Endianness формата : Big
Идентификатор кодека : A_AC3
Продолжительность : 58 м.
Вид битрейта : Постоянный
Битрейт : 192 Кбит/сек
Каналы : 2 канала
Расположение каналов : Front: L R
Частота : 48,0 КГц
Частота кадров : 31,250 кадров/сек (1536 spf)
Метод сжатия : С потерями
Задержка видео : 12 мс.
Размер потока : 79,8 Мбайт (5%)
Заголовок : IDEAFILM
Язык : Russian
Default : Да
Forced : Нет
Statistics Tags Issue : mkvmerge v9.2.0 ('Photograph') 64bit 2016-09-25 20:10:38 / mkvmerge v5.3.0 ('I could have danced') built on Feb 9 2012 10:38:07 2016-11-12 01:09:25
FromStats_BitRate : 192000
FromStats_Duration : 00:58:27.552000000
FromStats_FrameCount : 109611
FromStats_StreamSize : 84181248
Аудио #2
Идентификатор : 3
Формат : AC-3
Формат/Информация : Audio Coding 3
Расширение режима : CM (complete main)
Параметр Endianness формата : Big
Идентификатор кодека : A_AC3
Продолжительность : 58 м.
Вид битрейта : Постоянный
Битрейт : 192 Кбит/сек
Каналы : 2 канала
Расположение каналов : Front: L R
Частота : 48,0 КГц
Частота кадров : 31,250 кадров/сек (1536 spf)
Метод сжатия : С потерями
Задержка видео : 12 мс.
Размер потока : 79,8 Мбайт (5%)
Язык : English
Default : Нет
Forced : Нет
Statistics Tags Issue : mkvmerge v9.2.0 ('Photograph') 64bit 2016-09-25 20:10:38 / mkvmerge v5.3.0 ('I could have danced') built on Feb 9 2012 10:38:07 2016-11-12 01:09:25
FromStats_BitRate : 192000
FromStats_Duration : 00:58:07.584000000
FromStats_FrameCount : 108987
FromStats_StreamSize : 83702016
Download / Скачать

Хотите скачать бесплатно? Зарегистрируйтесь на сайте (ссылка на регистрацию). Pirat.ca - самый быстрый торрент трекер в рунете!

Как скачивать  ·   Что такое торрент  ·   Рейтинг и ограничения

somik ®

Легенда

26837

Пост 12-Ноя-2016 07:29 (спустя 35 минут)

[Q] 

Извините: встречается немного текстовой рекламы. ca

_________________
Всё когда-нибудь уже было... В интернете!
[Профиль]  [ЛС] 
Показать сообщения:    
Ответить на тему

Текущее время: Сегодня 23:54

Часовой пояс: GMT + 4



Вы не можете начинать темы
Вы не можете отвечать на сообщения
Вы не можете редактировать свои сообщения
Вы не можете удалять свои сообщения
Вы не можете голосовать в опросах
Вы не можете прикреплять файлы к сообщениям
Вы не можете скачивать файлы

▼ Вниз