ML
     
  Уважаемый Гость!
Вы можете поддержать проект и зарегистрироваться у наших партнеров - онлайн-стратегия MyLands. При регистрации в игре Вы получите код, который сможете активировать после регистрации на pirat.ca и получить 1000 дублонов.

Ваш код:
bb0cb47ee786a33f751af5a500dd264c9487bfac
 
     

Тайный круг / The Secret Circle / Сезон: 1 / Серии: 22 из 22 (Лиз Фридлендер / Liz Friedlander, ...) [2011 г., ужасы, фэнтези, драма, мелодрама, 12+, WEB-DLRip] MVO (LostFilm)

Ответить на тему
 
Автор
Сообщение

Пост 12-Ноя-2016 08:43

[Q] 

somik

Легенда

-Тайный круг / The Secret Circle-- Производство: США, Канада, Warner Bros. Television, ...
Жанр: ужасы, фэнтези, драма, мелодрама, 12+
Год выпуска: 2011 г.
Продолжительность: 00:42:00
Мировая премьера: 15 сентября 2011
Российская премьера: 7 мая 2012
Перевод: Профессиональный (многоголосый, закадровый) [LostFilm]
Режиссер: Лиз Фридлендер / Liz Friedlander, ...-В ролях: Бриттани Робертсон, Томас Деккер, Гейл Харольд, Наташа Хенстридж, Фиби Тонкин, Шелли Хенниг, Луис Хантер, Эшли Кроу, Адам Харрингтон-Описание: После трагической гибели матери, старшеклассница Кэсси Блейк переезжает к своей бабушке в маленький городок Ченс-Харбор. Очень скоро выясняется, что возвращение Кэсси в город, где родилась и выросла её мать, не было случайностью — оказывается, Кэсси потомственная ведьма, и юному ведьмовскому клану как раз не хватало шестого участника, чтобы обрести полную силу. Но почему мать никогда не рассказывала Кэсси о своих и её способностях? Какая трагедия 16 лет назад лишила каждого участника Тайного Круга одного из родителей? И что замышляют те представители старшего поколения ведьм, что остались в живых? У Тайного Круга очень много тайн…-
Качество видео: WEB-DLRip
Контейнер: AVI
Видео кодек: XviD
Аудио кодек: MP3
Видео: 704x400 (1.76:1), 23.976 fps, XviD MPEG-4 ~1306 kbps avg, 0.19 bit/pixel
Аудио: 48 kHz, MPEG Layer 3, 2 ch, ~128.00 kbps avg
Cубтитры: отсутствуют
Сериал снят по мотивам серии романов Л. Дж. Смит «Тайный круг» (The Secret Circle, 1992-2012).
В книгах шабаш ведьм состоит из 12 человек, но в сериале их количество сократили до 6 персонажей.
Фиби Тонкин, исполнительница роли Фэй Чемберлен, изначально прослушивалась на роль Дианы Мид.
Сатурн, 2012 год
Номинации (1):
Лучший сериал для молодежи на ТВ
Что ж, вижу написано много отрицательных отзывов, и не могу понять почему? Неужели Тайный круг хуже тех же Дневников вампира? Мне гораздо больше понравился Тайный круг!
Сюжет только по началу кажется очень прост, только сначала! События развиваются гораздо быстрее, чем в тех же Дневниках вампира. Смотрится он на одном дыхании. Девушка Кэсси переезжает к бабушке после загадочной смерти матери и узнает, что она, ее мать и бабушка — ведьмы. Оказывается Кэсси — замыкает круг, в котором находятся другие ведьмы, и у каждого умер один или оба родителя, но тайна заключается в том, что все умалчивают об этом событии. И это лишь одна из тайн.
В сериале есть несостыковки, например зачем необходимо было замыкать круг, колдуны так кажутся слабее, не показали, что они сильнее, когда круг замкнут!
Герои то и дело меняют твое мнение, то это стерва, то прекрасный товарищ, то предатель, то милая девушка или парень.
Актеры хоть молодые и малоизвестные, но справились достаточно неплохо. Все очень красивые, привлекают внимание, что не может не радовать глаз.
Не понравился мне лишь Томас Деккер, возможно лишь из-за прически, ибо я видела его в других фильмах, и он там очень даже симпатичный.
Саундтрек вообще отличный, некоторые песни врезаются в память с первого раза.
В общем я ставлю:
10 из 10
P.S. Очень жаль, что сериал собрал немного зрителей, и поэтому его закрыли. Как мне кажется, как раз на самом интересном месте! Думаю продолжение было бы куда интересней.
Общее
Полное имя : F:\Тайный круг The Secret Circle [1 сезон, 1-22 серии из 22] (2011-2012) WEB-DLRip\The Secret Circle.S01.LostFilm.[pirat.ca]\The.Secret.Circle.S01E01.rus.LostFilm.TV.avi
Формат : AVI
Формат/Информация : Audio Video Interleave
Размер файла : 441 Мбайт
Продолжительность : 42 м.
Общий поток : 1448 Кбит/сек
Программа кодирования : Nandub v1.0rc2
Библиотека кодирования : Nandub build 1853/release
Видео
Идентификатор : 0
Формат : MPEG-4 Visual
Профиль формата : Advanced [email protected]
Параметр BVOP формата : 1
Параметр QPel формата : Нет
Параметр GMC формата : Без точки перехода
Параметр матрицы формата : Выборочная
Идентификатор кодека : XVID
Идентификатор кодека/Подсказка : XviD
Продолжительность : 42 м.
Битрейт : 1307 Кбит/сек
Ширина : 704 пикселя
Высота : 400 пикселей
Соотношение сторон : 16:9
Частота кадров : 23,976 (23976/1000) кадра/сек
Цветовое пространство : YUV
Субдискретизация насыщенности : 4:2:0
Битовая глубина : 8 бит
Тип развёртки : Прогрессивная
Метод сжатия : С потерями
Бит/(Пиксели*Кадры) : 0.194
Размер потока : 399 Мбайт (90%)
Библиотека кодирования : XviD 64
Аудио
Идентификатор : 1
Формат : MPEG Audio
Версия формата : Version 1
Профиль формата : Layer 3
Режим : Joint stereo
Расширение режима : MS Stereo
Идентификатор кодека : 55
Идентификатор кодека/Подсказка : MP3
Продолжительность : 42 м.
Вид битрейта : Постоянный
Битрейт : 128 Кбит/сек
Каналы : 2 канала
Частота : 48,0 КГц
Метод сжатия : С потерями
Задержка видео : 1 мс.
Размер потока : 39,0 Мбайт (9%)
Выравнивание : Соединение по промежуткам
Продолжительность промежутка : 24 мс. (0,58 видеокадр)
Время предзагрузки промежутка : 481 мс.
Download / Скачать

Хотите скачать бесплатно? Зарегистрируйтесь на сайте (ссылка на регистрацию). Pirat.ca - самый быстрый торрент трекер в рунете!

Как скачивать  ·   Что такое торрент  ·   Рейтинг и ограничения

Показать сообщения:    
Ответить на тему

Текущее время: Сегодня 02:17

Часовой пояс: GMT + 4



Вы не можете начинать темы
Вы не можете отвечать на сообщения
Вы не можете редактировать свои сообщения
Вы не можете удалять свои сообщения
Вы не можете голосовать в опросах
Вы не можете прикреплять файлы к сообщениям
Вы не можете скачивать файлы

▼ Вниз