ML
     
  Уважаемый Гость!
Вы можете поддержать проект и зарегистрироваться у наших партнеров - онлайн-стратегия MyLands. При регистрации в игре Вы получите код, который сможете активировать после регистрации на pirat.ca и получить 1000 дублонов.

Ваш код:
156f85568ae63e45e07ac461c96a83ba1a876b0a
 
     

Злоумышленники / Intruders / Сезон: 1 / Серии: 8 из 8 (Даниэль Штамм / Daniel Stamm, Эдуардо Санчес / Eduardo Sanchez) [2014 г., триллер, детектив, BDRip, 720p] MVO (IdeaFilm) + Original (Eng)

Ответить на тему
 
Автор
Сообщение

Пост 14-Ноя-2016 01:42

[Q] 

somik

Легенда

-Злоумышленники / Intruders-- Производство: США, BBC Worldwide Productions
Жанр: триллер, детектив
Год выпуска: 2014 г.
Продолжительность: 00:41:46
Мировая премьера: 23 августа 2014
Перевод: Профессиональный (многоголосый, закадровый) [IdeaFilm]
Оригинальный аудиопоток: английский
Режиссер: Даниэль Штамм / Daniel Stamm, Эдуардо Санчес / Eduardo Sanchez-В ролях: Джон Симм (Jack Whalen), Джеймс Фрейн (Richard Shepherd), Милли Бобби Браун (Madison O'Donnell), Тори Киттлз (Gary Fischer), Мира Сорвино (Amy Whelan), Соня Саломяа (Allison O'Donnell), Дэрил Шаттлворф (Detective Ron Blanchard), Эндрю Эйрли (Todd Crane), Карин Коновал (Bobbi Zimmerman), Том Батлер (Brad Zimmerman), Тоби Харгрейв (Tim Truth), Матиас Ретамаль (Juvenal)-Описание: Сериал расскажет, как Джек Уилан сбежал от своего темного и насильственного прошлого для спокойной жизни на Северо-Запад США. Но его жена пропадает без вести, и вскоре в городе начинают происходить не связанные между собой загадочные события. Он начинает свое расследование, которое изменит его взгляд на природу человека.-
Качество видео: BDRip
Контейнер: MKV
Стандарт разрешения: 720p
Видео кодек: MPEG4 AVC
Аудио кодек: AC3
Видео: 1280x720 (16:9), 25,000 кадров/сек, 4375
Аудио: русский / AC3 / 2.0 / 48 kHz / 192 kbps / MVO IdeaFilm
Аудио #2: английский / AC3 / 5.1 / 48 kHz / 640 kbps
Cубтитры: отсутствуют
Общее
Уникальный идентификатор : 244042641970669474317372325894013012518 (0xB798E73751F598BFA1E0737515674A26)
Полное имя : E:\Злоумышленники Intruders [01-08 из 8] (2014)\Zloumyshlenniki.2014.BDRip.720p.IdeaFilm.[pirat.ca]\Zloumyshleniki.01.BDRip.720p.mkv
Формат : Matroska
Версия формата : Version 2
Размер файла : 1,34 Гбайт
Продолжительность : 43 м.
Общий поток : 4375 Кбит/сек
Название фильма : Злоумышленники / Intruders (2014) 1 серия BDRip 720p
Дата кодирования : UTC 2016-11-13 21:22:24
Программа кодирования : mkvmerge v5.3.0 ('I could have danced') built on Feb 9 2012 10:38:07
Библиотека кодирования : libebml v1.2.3 + libmatroska v1.3.0
Обложка : Yes
Attachments : cover.jpg
Видео
Идентификатор : 1
Формат : AVC
Формат/Информация : Advanced Video Codec
Профиль формата : [email protected]
Параметр CABAC формата : Да
Параметр ReFrames формата : 9 кадров
Режим смешивания : Header stripping
Идентификатор кодека : V_MPEG4/ISO/AVC
Продолжительность : 43 м.
Битрейт : 3456 Кбит/сек
Ширина : 1280 пикселей
Высота : 720 пикселей
Соотношение сторон : 16:9
Режим частоты кадров : Постоянный
Частота кадров : 25,000 кадров/сек
Цветовое пространство : YUV
Субдискретизация насыщенности : 4:2:0
Битовая глубина : 8 бит
Тип развёртки : Прогрессивная
Бит/(Пиксели*Кадры) : 0.150
Размер потока : 1,06 Гбайт (79%)
Заголовок : Злоумышленники / Intruders (2014) 1 серия BDRip 720p
Библиотека кодирования : x264 core 146 r2538 121396c
Настройки программы : cabac=1 / ref=9 / deblock=1:-3:-3 / analyse=0x3:0x113 / me=umh / subme=11 / psy=1 / psy_rd=1.00:0.10 / mixed_ref=1 / me_range=32 / chroma_me=1 / trellis=2 / 8x8dct=1 / cqm=0 / deadzone=21,11 / fast_pskip=0 / chroma_qp_offset=-3 / threads=12 / lookahead_threads=3 / sliced_threads=0 / nr=0 / decimate=1 / interlaced=0 / bluray_compat=0 / constrained_intra=0 / bframes=12 / b_pyramid=2 / b_adapt=2 / b_bias=0 / direct=3 / weightb=1 / open_gop=0 / weightp=2 / keyint=250 / keyint_min=25 / scenecut=40 / intra_refresh=0 / rc_lookahead=50 / rc=crf / mbtree=0 / crf=19.0 / qcomp=0.60 / qpmin=0 / qpmax=69 / qpstep=4 / vbv_maxrate=62500 / vbv_bufsize=78125 / crf_max=0.0 / nal_hrd=none / filler=0 / ip_ratio=1.40 / pb_ratio=1.30 / aq=1:1.00
Язык : English
Default : Да
Forced : Нет
Аудио #1
Идентификатор : 2
Формат : AC-3
Формат/Информация : Audio Coding 3
Расширение режима : CM (complete main)
Параметр Endianness формата : Big
Режим смешивания : Header stripping
Идентификатор кодека : A_AC3
Продолжительность : 43 м.
Вид битрейта : Постоянный
Битрейт : 192 Кбит/сек
Каналы : 2 канала
Расположение каналов : Front: L R
Частота : 48,0 КГц
Частота кадров : 31,250 кадров/сек (1536 spf)
Метод сжатия : С потерями
Размер потока : 60,3 Мбайт (4%)
Заголовок : MVO ( IdeaFilm )
Язык : Russian
Default : Да
Forced : Нет
Аудио #2
Идентификатор : 3
Формат : AC-3
Формат/Информация : Audio Coding 3
Расширение режима : CM (complete main)
Параметр Endianness формата : Big
Режим смешивания : Header stripping
Идентификатор кодека : A_AC3
Продолжительность : 43 м.
Вид битрейта : Постоянный
Битрейт : 640 Кбит/сек
Каналы : 6 каналов
Расположение каналов : Front: L C R, Side: L R, LFE
Частота : 48,0 КГц
Частота кадров : 31,250 кадров/сек (1536 spf)
Метод сжатия : С потерями
Размер потока : 201 Мбайт (15%)
Язык : English
Default : Нет
Forced : Нет
Меню
00:00:00.000 : en:00:00:00.000
00:05:49.320 : en:00:05:49.320
00:14:35.360 : en:00:14:35.360
00:23:14.960 : en:00:23:14.960
00:30:37.960 : en:00:30:37.960
00:38:14.800 : en:00:38:14.800
Download / Скачать

Хотите скачать бесплатно? Зарегистрируйтесь на сайте (ссылка на регистрацию). Pirat.ca - самый быстрый торрент трекер в рунете!

Как скачивать  ·   Что такое торрент  ·   Рейтинг и ограничения

Показать сообщения:    
Ответить на тему

Текущее время: Сегодня 21:55

Часовой пояс: GMT + 4



Вы не можете начинать темы
Вы не можете отвечать на сообщения
Вы не можете редактировать свои сообщения
Вы не можете удалять свои сообщения
Вы не можете голосовать в опросах
Вы не можете прикреплять файлы к сообщениям
Вы не можете скачивать файлы

▼ Вниз