ML
     
  Уважаемый Гость!
Вы можете поддержать проект и зарегистрироваться у наших партнеров - онлайн-стратегия MyLands. При регистрации в игре Вы получите код, который сможете активировать после регистрации на pirat.ca и получить 1000 дублонов.

Ваш код:
bb0cb47ee786a33f751af5a500dd264c9487bfac
 
     

Двойник / Ringer / Сезон: 1 / Серии: 22 из 22 (Дженис Кук-Леонард / Janice Cooke-Leonard, ...) [2011 г., триллер, драма, криминал, детектив, WEB-DLRip] DVO (NewStudio) + Original (Eng)

Ответить на тему
 
Автор
Сообщение

Пост 19-Ноя-2016 09:00

[Q] 

somik

Легенда

-Двойник / Ringer-- Производство: США, ABC Television Studios, Warner Bros. Television, CBS Television Studios, ...
Жанр: триллер, драма, криминал, детектив
Год выпуска: 2011 г.
Продолжительность: 00:42:00
Мировая премьера: 13 сентября 2011
Российская премьера: 10 марта 2016
Перевод: Профессиональный (двухголосый, закадровый) [NewStudio]
Оригинальный аудиопоток: английский
Режиссер: Дженис Кук-Леонард / Janice Cooke-Leonard, ...-В ролях: Сара Мишель Геллар, Нестор Карбонелл, Майк Колтер, Питер Конбой, Зоя Дойч, Джейсон Фурлани, Йоан Гриффит, Мэган Холдер, Кэйден Кесслер, Абе Лебович-Описание: В центре истории — молодая женщина, у которой куча проблем, да еще и приходится скрываться от мафии. Она решает притвориться своей богатой сестрой-близняшкой и узнает, что за той тоже идет охота.-
Качество видео: WEB-DLRip
Контейнер: AVI
Видео кодек: XviD
Аудио кодек: MP3
Видео: 624x352 (1.77:1), 23.976 fps, XviD build 64 ~1093 kbps avg, 0.21 bit/pixel
Аудио: 48 kHz, MPEG Layer 3, 2 ch, ~128.00 kbps avg
Аудио #2: 48 kHz, MPEG Layer 3, 2 ch, ~127.43 kbps avg
Cубтитры: отсутствуют
Ну вот Сара Мишель Геллар снова вернулась на экраны играя сразу две роли. А именно сестер близняшек, которых отличить не возможно. Одна наркоманка с сомнительным прошлым, а вторая на первый взгляд успешная бизнес леди. Сестры не общаются шесть лет и потом все меняется. Бриджит попадает в беду и Шивон идет ей на встречу. И тут все начинается.
Я очень люблю Сару Мишель Геллар. Я уверена, что из-за нее около 90% зрителей смотрят этот сериал. Как-то изначально у меня было чувство, что сериал окажется плохим. Но меня это не сильно волновало, так как из-за Сары я буду смотреть
все что угодно. Но я ошибалась, что недооценивала «Двойника» и этому очень даже рада. От сериала оторваться ж не возможно. CW что вы делаете? С каждой последующей серией я все больше, и больше жду с нетерпением следующую. Так как очень захватывает! Очень интересно! После очередной серии мне просто хочется бить по столу и кричать: «Дайте мне еще серию. Я хочу знать, что будет дальше» и этому не будет конца. Если бы на данный момент был бы доступен весь сезон, я бы его за день и посмотрела бы.
Вообще я не хотела пока писать отзыв, так как очень еще рано, но не сдержалась. Посмотрев все доступные серии на данный момент, мне хочется еще и еще. Безумно хочется продолжения.
Интрига довольна хороша. Мне очень интересен план Шивон и как Бриджит будет выкручиваться из ситуации.
Что мне очень понравилось так это ночная атмосфера Нью-Йорка и отличный саундтрек. Очень бы хотелось что бы сериал не стал хуже первых серий, так как я считаю что очень достойное начало. Так что я с «Двойником» до конца.
10 из 10
Но все же, Сара для меня так и осталась Баффи.
Общее
Полное имя : J:\Двойник Ringer [1-22 серия из 22] (2011)\Ringer.S01.2011.WEB-DLRip.NewStudio.[pirat.ca]\ringer.s01e01.webdl_NewStudio.TV.avi
Формат : AVI
Формат/Информация : Audio Video Interleave
Размер файла : 400 Мбайт
Продолжительность : 40 м.
Режим общего битрейта : Переменный
Общий поток : 1368 Кбит/сек
Программа кодирования : VirtualDubMod 1.5.10.2 (build 2542/release)
Библиотека кодирования : VirtualDubMod build 2542/release
Видео
Идентификатор : 0
Формат : MPEG-4 Visual
Профиль формата : Advanced [email protected]
Параметр BVOP формата : 2
Параметр QPel формата : Нет
Параметр GMC формата : Без точки перехода
Параметр матрицы формата : Default (H.263)
Идентификатор кодека : XVID
Идентификатор кодека/Подсказка : XviD
Продолжительность : 40 м.
Битрейт : 1095 Кбит/сек
Ширина : 624 пикселя
Высота : 352 пикселя
Соотношение сторон : 16:9
Частота кадров : 23,976 (23976/1000) кадра/сек
Цветовое пространство : YUV
Субдискретизация насыщенности : 4:2:0
Битовая глубина : 8 бит
Тип развёртки : Прогрессивная
Метод сжатия : С потерями
Бит/(Пиксели*Кадры) : 0.208
Размер потока : 320 Мбайт (80%)
Библиотека кодирования : XviD 64
Аудио #1
Идентификатор : 1
Формат : MPEG Audio
Версия формата : Version 1
Профиль формата : Layer 3
Режим : Joint stereo
Расширение режима : MS Stereo
Идентификатор кодека : 55
Идентификатор кодека/Подсказка : MP3
Продолжительность : 40 м.
Вид битрейта : Постоянный
Битрейт : 128 Кбит/сек
Каналы : 2 канала
Частота : 48,0 КГц
Метод сжатия : С потерями
Размер потока : 37,4 Мбайт (9%)
Выравнивание : Соединение по промежуткам
Продолжительность промежутка : 42 мс. (1,00 видеокадр)
Время предзагрузки промежутка : 504 мс.
Аудио #2
Идентификатор : 2
Формат : MPEG Audio
Версия формата : Version 1
Профиль формата : Layer 3
Режим : Joint stereo
Расширение режима : MS Stereo
Идентификатор кодека : 55
Идентификатор кодека/Подсказка : MP3
Продолжительность : 40 м.
Вид битрейта : Переменный
Битрейт : 128 Кбит/сек
Каналы : 2 канала
Частота : 48,0 КГц
Метод сжатия : С потерями
Размер потока : 37,3 Мбайт (9%)
Выравнивание : Соединение по промежуткам
Продолжительность промежутка : 24 мс. (0,58 видеокадр)
Время предзагрузки промежутка : 144 мс.
Библиотека кодирования : LAME3.90.
Настройки программы : -m j -V 4 -q 2 -lowpass 17.6 --abr 128
Download / Скачать

Хотите скачать бесплатно? Зарегистрируйтесь на сайте (ссылка на регистрацию). Pirat.ca - самый быстрый торрент трекер в рунете!

Как скачивать  ·   Что такое торрент  ·   Рейтинг и ограничения

Показать сообщения:    
Ответить на тему

Текущее время: Сегодня 02:22

Часовой пояс: GMT + 4



Вы не можете начинать темы
Вы не можете отвечать на сообщения
Вы не можете редактировать свои сообщения
Вы не можете удалять свои сообщения
Вы не можете голосовать в опросах
Вы не можете прикреплять файлы к сообщениям
Вы не можете скачивать файлы

▼ Вниз