ML
     
  Уважаемый Гость!
Вы можете поддержать проект и зарегистрироваться у наших партнеров - онлайн-стратегия MyLands. При регистрации в игре Вы получите код, который сможете активировать после регистрации на pirat.ca и получить 1000 дублонов.

Ваш код:
69f316be79867e9bf99caee9682d20bb11964507
 
     

Наш зоопарк / Our Zoo / Сезон: 1 / Серии: 6 из 6 (Энди де Эммони / Andy DeEmmony, ...) [2014 г., драма, WEB-DLRip] MVO (BaibaKo) + Original (Eng)

Ответить на тему
 
Автор
Сообщение

Пост 21-Ноя-2016 15:56

[Q] 

somik

Легенда

-Наш зоопарк / Our Zoo-- Производство: Великобритания, BBC Television Centre, Big Talk Productions
Жанр: драма
Год выпуска: 2014 г.
Продолжительность: 00:58:30
Мировая премьера: 3 сентября 2014
Перевод: Профессиональный (многоголосый, закадровый) [BaibaKo]
Оригинальна аудиодорожка: английская
Режиссер: Энди де Эммони / Andy DeEmmony, ...-В ролях: Ли Инглби, Стивен Кэмпбелл Мур, Амелия Кларксон, Хонор Книфси, Ральф Литтл, София Майлс, Энн Рейд, Лиз Уайт, Питер Уайт-Описание: Рассказывает историю создания в тридцатые годы XX века одного из самых популярных зоопарков Британии — честерского.-
Качество видео: WEB-DLRip
Контейнер: AVI
Видео кодек: XviD
Аудио кодек: MP3
Видео: 720x400 (1.80:1), 25 fps, XviD build 50 ~1388 kbps avg, 0.19 bit/pixel
Аудио: 48 kHz, MPEG Layer 3, 2 ch, ~128.00 kbps avg
Аудио #2: 48 kHz, MPEG Layer 3, 2 ch, ~128.00 kbps avg
Cубтитры: отсутствуют
Однажды Джордж Моттерсхед пожалел несчастного задрипанного верблюда и притащил его себе на задний двор это в Лондоне-то! Потом попугая ару. Потом обезьянку-капуцина, который стал лучшим другом его младшей дочери.. В общем, когда встал вопрос что со всем этим зверинцем делать, Джордж на семейном совете решил открыть зоопарк! И не абы какой, а зоопарк «без клеток», очень по тем временам революционная идея. Присмотрел себе пустующий особняк близ деревушки Аптон, набрал кредитов и засучив рукава принялся устраивать удобный дом для кучи зверья, которым к тому времени уже оброс. И всё бы ничего, но местному викарию страшно не понравилось что его бывшее родовое гнездо используют для таких низменных целей какие-то столичные нищеброды. И уж конечно священники лучше всех знают как использовать общественное мнение в своих целях.
Целых шесть серий нам рассказывают как одно храброе семейство бъётся с предрассудками, проблемами и страхом перед завтрашним днём. И будьте уверены, саспенса там полно, от сбежавшего в ночи медведя и до получения лицензии на деятельность — проблемы возникали буквально на каждом шагу. Очень милая история. Стильная, неспешная и с хорошими актёрами — всё как у британцев заведено. Тем более интересно, ибо всё это по реальным событиям. Сейчас-то Честерский зоопарк главная зоодостопримечательность Британии: 7000 животных, 400 видов, редкие растения и выглядит вот так. А тогда, в 30-ых, начиналось всё в старых конюшнях, на голом энтузизазме.
Любителям книжек Бианки и Даррела — настоятельно.
7 из 10
Общее
Полное имя : E:\Наш зоопарк Our Zoo [1 сезон] (2014)\Our Zoo.S01.2014.WEB-DLRip.Rus.Eng.BaibaKo.[pirat.ca]\Our.Zoo.S01E01.WEB-DLRip.RusEng.BaibaKo.F.avi
Формат : AVI
Формат/Информация : Audio Video Interleave
Размер файла : 701 Мбайт
Продолжительность : 59 м.
Общий поток : 1659 Кбит/сек
Программа кодирования : VirtualDubMod 1.5.10.3 (build 2550/release)
Библиотека кодирования : VirtualDubMod build 2550/release
Видео
Идентификатор : 0
Формат : MPEG-4 Visual
Профиль формата : Advanced [email protected]
Параметр BVOP формата : 1
Параметр QPel формата : Нет
Параметр GMC формата : Без точки перехода
Параметр матрицы формата : Default (H.263)
Идентификатор кодека : XVID
Идентификатор кодека/Подсказка : XviD
Продолжительность : 59 м.
Битрейт : 1389 Кбит/сек
Ширина : 720 пикселей
Высота : 400 пикселей
Соотношение сторон : 16:9
Частота кадров : 25,000 кадров/сек
Цветовое пространство : YUV
Субдискретизация насыщенности : 4:2:0
Битовая глубина : 8 бит
Тип развёртки : Прогрессивная
Метод сжатия : С потерями
Бит/(Пиксели*Кадры) : 0.193
Размер потока : 586 Мбайт (84%)
Библиотека кодирования : XviD 1.2.1 (UTC 2008-12-04)
Аудио #1
Идентификатор : 1
Формат : MPEG Audio
Версия формата : Version 1
Профиль формата : Layer 3
Режим : Joint stereo
Расширение режима : MS Stereo
Идентификатор кодека : 55
Идентификатор кодека/Подсказка : MP3
Продолжительность : 59 м.
Вид битрейта : Постоянный
Битрейт : 128 Кбит/сек
Каналы : 2 канала
Частота : 48,0 КГц
Метод сжатия : С потерями
Размер потока : 54,0 Мбайт (8%)
Выравнивание : Соединение по промежуткам
Продолжительность промежутка : 40 мс. (1,00 видеокадр)
Время предзагрузки промежутка : 504 мс.
Аудио #2
Идентификатор : 2
Формат : MPEG Audio
Версия формата : Version 1
Профиль формата : Layer 3
Режим : Joint stereo
Расширение режима : MS Stereo
Идентификатор кодека : 55
Идентификатор кодека/Подсказка : MP3
Продолжительность : 59 м.
Вид битрейта : Постоянный
Битрейт : 128 Кбит/сек
Каналы : 2 канала
Частота : 48,0 КГц
Метод сжатия : С потерями
Размер потока : 54,0 Мбайт (8%)
Выравнивание : Соединение по промежуткам
Продолжительность промежутка : 40 мс. (1,00 видеокадр)
Время предзагрузки промежутка : 504 мс.
Download / Скачать

Хотите скачать бесплатно? Зарегистрируйтесь на сайте (ссылка на регистрацию). Pirat.ca - самый быстрый торрент трекер в рунете!

Как скачивать  ·   Что такое торрент  ·   Рейтинг и ограничения

Показать сообщения:    
Ответить на тему

Текущее время: Сегодня 14:32

Часовой пояс: GMT + 4



Вы не можете начинать темы
Вы не можете отвечать на сообщения
Вы не можете редактировать свои сообщения
Вы не можете удалять свои сообщения
Вы не можете голосовать в опросах
Вы не можете прикреплять файлы к сообщениям
Вы не можете скачивать файлы

▼ Вниз