ML
     
  Уважаемый Гость!
Вы можете поддержать проект и зарегистрироваться у наших партнеров - онлайн-стратегия MyLands. При регистрации в игре Вы получите код, который сможете активировать после регистрации на pirat.ca и получить 1000 дублонов.

Ваш код:
062e2babcc491faeb40d496cf9a498ac3df6cdd0
 
     

Медичи: Повелители Флоренции / Medici: Masters of Florence / Сезон: 1 / Серии: 8 из 8 (Серджо Мимика-Геззан / Sergio Mimica-Gezzan) [2016 г., триллер, драма, история, HDTV, 720p] MVO (Jaskier) + Original (Eng)+ Sub (Eng)

Ответить на тему
 
Автор
Сообщение

Пост 26-Ноя-2016 14:14

[Q] 

somik

Легенда

-Медичи: Повелители Флоренции / Medici: Masters of Florence-- Производство: Великобритания, Италия
Жанр: триллер, драма, история
Год выпуска: 2016 г.
Продолжительность: 00:55:00
Мировая премьера: 18 октября 201
Перевод: Профессиональный (многоголосый, закадровый) [Jaskier]
Оригинальный поток: английский
Режиссер: Серджо Мимика-Геззан / Sergio Mimica-Gezzan-В ролях: Дастин Хоффман, Гвидо Каприно, Джорджо Капуто, Ричард Мэдден, Стюарт Мартин и другие-Описание: Темой сериала станет превращение титулованного семейства Медичи из обычных торговцев в невероятно могучий клан, который, зачастую пренебрегая законами морали, оказал существенное влияние на духовную, экономическую и культурную революции, и нажил себе много врагов.-
Качество видео: HDTV
Контейнер: MKV
Стандарт разрешения: 720p
Видео кодек: MPEG4 AVC
Аудио кодек: AC3
Видео: 1280x688 (16:9), 25 fps, ~3400kbps, ~0.154 bit/pixel
Аудио: Dolby AC3 48000Hz 5.1 384Kbps
Аудио #2: Dolby AC3 48000Hz 5.1 384Kbps
Cубтитры: английские, включаемые
Общее
Уникальный идентификатор : 235857530416107093540383765079080452002 (0xB170820F27E7D26A9BA24D9321DA3FA2)
Полное имя : F:\Медичи Правители Флоренции 2016\Medici. Masters of Florence. S01.HDTVRip.720p.Jaskier.[pirat.ca]\Medici.Masters.of.Florence.S01E01.Original.Sin.720p.HDTVRip.DD5.1.H264-Jaskier.mkv
Формат : Matroska
Версия формата : Version 2
Размер файла : 1,60 Гбайт
Продолжительность : 55 м.
Общий поток : 4152 Кбит/сек
Название фильма : Los Medici Señores de Florencia 1x02 La cúpula y la residencia [HDTV 720p h264 AC3 5.1]
Дата кодирования : UTC 2016-11-07 20:15:40
Программа кодирования : mkvmerge v5.4.0 ('Piper') built on Mar 10 2012 13:34:39
Библиотека кодирования : libebml v1.2.3 + libmatroska v1.3.0
Видео
Идентификатор : 1
Формат : AVC
Формат/Информация : Advanced Video Codec
Профиль формата : [email protected]
Параметр CABAC формата : Да
Параметр ReFrames формата : 4 кадра
Идентификатор кодека : V_MPEG4/ISO/AVC
Продолжительность : 55 м.
Битрейт : 3400 Кбит/сек
Ширина : 1280 пикселей
Высота : 688 пикселей
Соотношение сторон : 1,85:1
Режим частоты кадров : Постоянный
Частота кадров : 25,000 кадров/сек
Цветовое пространство : YUV
Субдискретизация насыщенности : 4:2:0
Битовая глубина : 8 бит
Тип развёртки : Прогрессивная
Бит/(Пиксели*Кадры) : 0.154
Размер потока : 1,27 Гбайт (80%)
Заголовок : Los Medici Señores de Florencia 1x01 Pecado original
Библиотека кодирования : x264 core 130 r2273 b3065e6
Настройки программы : cabac=1 / ref=2 / deblock=1:0:0 / analyse=0x1:0x111 / me=hex / subme=4 / psy=1 / psy_rd=1.00:0.00 / mixed_ref=0 / me_range=16 / chroma_me=1 / trellis=1 / 8x8dct=0 / cqm=0 / deadzone=21,11 / fast_pskip=1 / chroma_qp_offset=0 / threads=12 / lookahead_threads=3 / sliced_threads=0 / nr=0 / decimate=1 / interlaced=0 / bluray_compat=0 / constrained_intra=0 / bframes=3 / b_pyramid=2 / b_adapt=1 / b_bias=0 / direct=1 / weightb=1 / open_gop=0 / weightp=1 / keyint=250 / keyint_min=25 / scenecut=40 / intra_refresh=0 / rc_lookahead=20 / rc=abr / mbtree=1 / bitrate=3400 / ratetol=1.0 / qcomp=0.60 / qpmin=0 / qpmax=69 / qpstep=4 / vbv_maxrate=50000 / vbv_bufsize=62500 / nal_hrd=none / ip_ratio=1.40 / aq=1:1.00
Язык : Spanish
Default : Да
Forced : Нет
Цветовой диапазон : Limited
Основные цвета : BT.709
Характеристики трансфера : BT.709
Коэффициенты матрицы : BT.709
Аудио #1
Идентификатор : 2
Формат : AC-3
Формат/Информация : Audio Coding 3
Расширение режима : CM (complete main)
Параметр Endianness формата : Big
Идентификатор кодека : A_AC3
Продолжительность : 55 м.
Вид битрейта : Постоянный
Битрейт : 384 Кбит/сек
Каналы : 6 каналов
Расположение каналов : Front: L C R, Side: L R, LFE
Частота : 48,0 КГц
Частота кадров : 31,250 кадров/сек (1536 spf)
Метод сжатия : С потерями
Размер потока : 152 Мбайт (9%)
Язык : Russian
Default : Да
Forced : Нет
Аудио #2
Идентификатор : 3
Формат : AC-3
Формат/Информация : Audio Coding 3
Расширение режима : CM (complete main)
Параметр Endianness формата : Big
Идентификатор кодека : A_AC3
Продолжительность : 55 м.
Вид битрейта : Постоянный
Битрейт : 384 Кбит/сек
Каналы : 6 каналов
Расположение каналов : Front: L C R, Side: L R, LFE
Частота : 48,0 КГц
Частота кадров : 31,250 кадров/сек (1536 spf)
Метод сжатия : С потерями
Размер потока : 152 Мбайт (9%)
Язык : English
Default : Нет
Forced : Нет
Текст
Идентификатор : 4
Формат : UTF-8
Идентификатор кодека : S_TEXT/UTF8
Идентификатор кодека/Информация : UTF-8 Plain Text
Язык : English
Default : Нет
Forced : Нет
Download / Скачать

Хотите скачать бесплатно? Зарегистрируйтесь на сайте (ссылка на регистрацию). Pirat.ca - самый быстрый торрент трекер в рунете!

Как скачивать  ·   Что такое торрент  ·   Рейтинг и ограничения

Показать сообщения:    
Ответить на тему

Текущее время: Сегодня 17:44

Часовой пояс: GMT + 4



Вы не можете начинать темы
Вы не можете отвечать на сообщения
Вы не можете редактировать свои сообщения
Вы не можете удалять свои сообщения
Вы не можете голосовать в опросах
Вы не можете прикреплять файлы к сообщениям
Вы не можете скачивать файлы

▼ Вниз