ML
     
  Уважаемый Гость!
Вы можете поддержать проект и зарегистрироваться у наших партнеров - онлайн-стратегия MyLands. При регистрации в игре Вы получите код, который сможете активировать после регистрации на pirat.ca и получить 1000 дублонов.

Ваш код:
bc31d8aef74c92e19ad67e34a8fa63c3b9b812fb
 
     

Военная хроника / Metal Hurlant Chronicles / Сезон: 1 / Серии: 6 из 6 (Уильям Лубрано / Guillaume Lubrano) [2012 г., фантастика, боевик, HDRip] MVO (Sony Turbo) + Original (Eng)

Ответить на тему
 
Автор
Сообщение

Пост 26-Ноя-2016 15:11

[Q] 

somik

Легенда

-Военная хроника / Metal Hurlant Chronicles-- Производство: Франция
Жанр: фантастика, боевик
Год выпуска: 2012 г.
Продолжительность: 00:23:00
Мировая премьера: 27 октября 2012
Российская премьера: 14 октября 2012
Перевод: Профессиональный (многоголосый, закадровый) [Sony Turbo]
Оригинал: Английский
Режиссер: Уильям Лубрано / Guillaume Lubrano-В ролях: Скотт Эдкинс, Майкл Джей Уайт, Даррен Шахлави, Мэтт Маллинз, Гай Амрам, Лидия Авилес, Дэвид Белль, Жан-Ив Бертело, Келли Брук.-Описание: Сериал переместит Вас во времена великих сражений и баталий, оставшихся в далеком прошлом.-
Качество видео: HDRip
Контейнер: AVI
Видео кодек: XviD
Аудио кодек: MP3
Видео: XviD, 720x400 (16/9), 25.000 fps, 1 250 Kbps (0.174 bit/pixel)
Аудио: MP3, 48.0 KHz, 2 ch, 128 Kbps, CBR
Аудио #2: MP3, 48.0 KHz, 2 ch, 128 Kbps, CBR
Cубтитры: отсутствуют
Сериал создан по мотивам фантастических комиксов под названием «Metal Hurlant Chronicles».
Путешествие Ревущего металла
Шесть крошечных серий, объединенных всего одним моментом: в каждой мелькает комета под названием Ревущий металл — последний осколок разрушенной планеты. В остальном серии абсолютно разные. В одной рассказывается о битве за трон, в другой — о спасении с рушащегося звездолета… В общем, перед нами сериал-антология, переносящий нас в разные миры и разные эпохи.
Технически «Военная хроника» — недорогой, но очень сильный, качественно сделанный сериал. Копеечные спецэффекты выполнены красиво, изящно и немного в стиле ретро — вспоминаются сериалы девяностых вроде «Вавилона-5» или «Звездных Врат». Сюжеты, кстати, из той же оперы — вроде как в лучших классических традициях, но через какое-то время понимаешь: без креатива тут не обошлось.
Не следует забывать о том, что «Хроника» — экранизация французского комикса. Американские комиксы, во всяком случае их герои, знакомы всем, даже далеким от этого жанра людям — «Мстители», «Бэтмен» и так далее. Есть у массового зрителя и читателя и представление о японской манге. Однако не каждому известно, что в тени американских и японских гигантов мирно и вполне успешно произрастают комиксы европейские вроде той же «Хроники» или «Валериана и города тысячи планет», который тоже скоро выйдет на экраны под режиссурой Люка Бессона. Особенно преуспевает именно Франция. И вот только недавно (в лице «Хроники») европейские шедевры начали пробиваться на экран… Так что данный сериал имеет еще и историческое значение.
История обещает продолжиться — до фанатов доходят слухи о втором сезоне. Так, что, возможно, самое главное в истории Ревущего металла еще впереди…
10 из 10
Общее
Полное имя : F:\Военная хроника Metal Hurlant Chronicles Сезон 1 серии 1-6 из 6 [2012]\Metal Hurlant.S01.2012.Sony Turbo.[pirat.ca]\Metal.Hurlant.S01E01.avi
Формат : AVI
Формат/Информация : Audio Video Interleave
Размер файла : 252 Мбайт
Продолжительность : 23 м.
Общий поток : 1521 Кбит/сек
Программа кодирования : VirtualDubMod 1.5.10.3 | www.virtualdub-fr.org || (build 2550/release)
Библиотека кодирования : VirtualDubMod build 2550/release
Видео
Идентификатор : 0
Формат : MPEG-4 Visual
Профиль формата : Advanced [email protected]
Параметр BVOP формата : 1
Параметр QPel формата : Нет
Параметр GMC формата : Без точки перехода
Параметр матрицы формата : Default (MPEG)
Идентификатор кодека : XVID
Идентификатор кодека/Подсказка : XviD
Продолжительность : 23 м.
Битрейт : 1250 Кбит/сек
Ширина : 720 пикселей
Высота : 400 пикселей
Соотношение сторон : 16:9
Частота кадров : 25,000 кадров/сек
Цветовое пространство : YUV
Субдискретизация насыщенности : 4:2:0
Битовая глубина : 8 бит
Тип развёртки : Прогрессивная
Метод сжатия : С потерями
Бит/(Пиксели*Кадры) : 0.174
Размер потока : 207 Мбайт (82%)
Библиотека кодирования : XviD 1.2.1 (UTC 2008-12-04)
Аудио #1
Идентификатор : 1
Формат : MPEG Audio
Версия формата : Version 1
Профиль формата : Layer 3
Режим : Joint stereo
Расширение режима : MS Stereo
Идентификатор кодека : 55
Идентификатор кодека/Подсказка : MP3
Продолжительность : 23 м.
Вид битрейта : Постоянный
Битрейт : 128 Кбит/сек
Каналы : 2 канала
Частота : 48,0 КГц
Метод сжатия : С потерями
Размер потока : 21,2 Мбайт (8%)
Выравнивание : Соединение по промежуткам
Продолжительность промежутка : 40 мс. (1,00 видеокадр)
Время предзагрузки промежутка : 504 мс.
Библиотека кодирования : LAME3.98r
Настройки программы : -m j -V 4 -q 0 -lowpass 17 -b 128
Аудио #2
Идентификатор : 2
Формат : MPEG Audio
Версия формата : Version 1
Профиль формата : Layer 3
Режим : Joint stereo
Расширение режима : MS Stereo
Идентификатор кодека : 55
Идентификатор кодека/Подсказка : MP3
Продолжительность : 23 м.
Вид битрейта : Постоянный
Битрейт : 128 Кбит/сек
Каналы : 2 канала
Частота : 48,0 КГц
Метод сжатия : С потерями
Размер потока : 21,2 Мбайт (8%)
Выравнивание : Соединение по промежуткам
Продолжительность промежутка : 40 мс. (1,00 видеокадр)
Время предзагрузки промежутка : 504 мс.
Библиотека кодирования : LAME3.98r
Настройки программы : -m j -V 4 -q 0 -lowpass 17 -b 128
Download / Скачать

Хотите скачать бесплатно? Зарегистрируйтесь на сайте (ссылка на регистрацию). Pirat.ca - самый быстрый торрент трекер в рунете!

Как скачивать  ·   Что такое торрент  ·   Рейтинг и ограничения

Показать сообщения:    
Ответить на тему

Текущее время: Сегодня 12:03

Часовой пояс: GMT + 4



Вы не можете начинать темы
Вы не можете отвечать на сообщения
Вы не можете редактировать свои сообщения
Вы не можете удалять свои сообщения
Вы не можете голосовать в опросах
Вы не можете прикреплять файлы к сообщениям
Вы не можете скачивать файлы

▼ Вниз