ML
     
  Уважаемый Гость!
Вы можете поддержать проект и зарегистрироваться у наших партнеров - онлайн-стратегия MyLands. При регистрации в игре Вы получите код, который сможете активировать после регистрации на pirat.ca и получить 1000 дублонов.

Ваш код:
062e2babcc491faeb40d496cf9a498ac3df6cdd0
 
     

Военная хроника / Metal Hurlant Chronicles / Сезон: 1 / Серии: 6 из 6 (Уильям Лубрано / Guillaume Lubrano) [2012 г., фантастика, боевик, BDRip] MVO (ОРТ)

Ответить на тему
 
Автор
Сообщение

Пост 26-Ноя-2016 15:29

[Q] 

somik

Легенда

-Военная хроника / Metal Hurlant Chronicles-- Производство: Франция
Жанр: фантастика, боевик
Год выпуска: 2012 г.
Продолжительность: 00:23:00
Мировая премьера: 27 октября 2012
Российская премьера: 14 октября 2012
Перевод: Профессиональный (многоголосый, закадровый) [ОРТ]
Режиссер: Уильям Лубрано / Guillaume Lubrano-В ролях: Скотт Эдкинс, Майкл Джей Уайт, Даррен Шахлави, Мэтт Маллинз, Гай Амрам, Лидия Авилес, Дэвид Белль, Жан-Ив Бертело, Келли Брук-Описание: Этот сериал был создан по мотивам популярных фантастических комиксов под названием Metal Hurlant Chronicles. Серии данных комиксов были выпущены в 1974 году. Через несколько лет после их издания во Франции, комиксы переиздали в США под названием Heavy Metal-
Качество видео: BDRip
Контейнер: AVI
Видео кодек: XviD
Аудио кодек: AC3
Видео: 720x400 (1.80:1), 25 fps, XviD build 50 ~1908 kbps avg, 0.27 bit/pixel Audio:
Аудио: 48 kHz, AC3 Dolby Digital, 2/0 (L,R) ch, ~192 kbps
Cубтитры: отсутствуют
Сериал создан по мотивам фантастических комиксов под названием «Metal Hurlant Chronicles».
Обещают второй сезон.
Казалось бы — низкобюджетный, европейский фантастический сериал, снятый по мотивам мало кому знакомому французскому комиксу. Что-то неудобоваримое для конченных гиков.
Но первое впечатление оказалось ошибочным.
Двадцатиминутные эпизоды — каждый сам по себе и закончен. Короткие новеллы с отличными актерами, приличными спецэффектами и любопытным сюжетом. Каждая серия пытается удивить в своем финале, сделать ход конем, заставляющий зрителя удивиться. Удается это с переменным успехом, но в целом очень даже радует.
Сюжет фактически не провисает. Правда, то и дело возникает ощущение дежавю: что-то подобное уже где-то да видели, в ЗВ, в Лекксе, в БСГ… Да мало ли где. Да и немного самоиронии не помешало бы.
Каждый эпизод — это отдельный мир, со своими законами и своими героями, связанный с остальными лишь условно — кометой, которая во время описываемых событий пролетает мимо. И ведь каждая история получается цельной, снятой по всем правилам драматургии. Несколько концентрировано в силу ограниченности времени, но от этого еще насыщеннее и ярче. И визуально весьма и весьма красиво. Начиная от замедленных съемок боев, декораций, костюмов и заканчивая цветовой гаммой и композицией кадров. Люблю я красивое зрелище. Особенно не совсем безмозглое. Здесь же при желании каждую историю можно так же рассматривать как притчу. Как метафору на ту или иную реалию жизни. Однако, временами все слишком банально, хоть местами очень даже уместно и отличный повод задуматься о вечном.
А вечного в сериале предостаточно. Много насилия. Немного секса. Юмора маловато, и многовато пафоса, правда. Но так как каждая серия длится всего лишь минут двадцать, то передоза не случается.
Вместо этого случается очень даже приятное и неглупое времяпрепровождение.
Особенно для конченных гиков.
Общее
Полное имя : F:\Военная хроника Metal Hurlant Chronicles Сезон 1 серии 1-6 из 6 [2012]\Metal Hurlant.S01.2012.BDRip.[pirat.ca]\Metal.Hurlant.S01E01.Kings.Crown.XviD.BDRip.[pirat.ca].avi
Формат : AVI
Формат/Информация : Audio Video Interleave
Размер файла : 350 Мбайт
Продолжительность : 23 м.
Общий поток : 2111 Кбит/сек
Программа кодирования : VirtualDubMod 1.5.10.3 | www.virtualdub-fr.org || (build 2550/release)
Библиотека кодирования : VirtualDubMod build 2550/release
Видео
Идентификатор : 0
Формат : MPEG-4 Visual
Профиль формата : Advanced [email protected]
Параметр BVOP формата : 2
Параметр QPel формата : Нет
Параметр GMC формата : Без точки перехода
Параметр матрицы формата : Default (H.263)
Идентификатор кодека : XVID
Идентификатор кодека/Подсказка : XviD
Продолжительность : 23 м.
Битрейт : 1909 Кбит/сек
Ширина : 720 пикселей
Высота : 400 пикселей
Соотношение сторон : 16:9
Частота кадров : 25,000 кадров/сек
Цветовое пространство : YUV
Субдискретизация насыщенности : 4:2:0
Битовая глубина : 8 бит
Тип развёртки : Прогрессивная
Метод сжатия : С потерями
Бит/(Пиксели*Кадры) : 0.265
Размер потока : 317 Мбайт (90%)
Библиотека кодирования : XviD 1.2.1 (UTC 2008-12-04)
Аудио
Идентификатор : 1
Формат : AC-3
Формат/Информация : Audio Coding 3
Расширение режима : CM (complete main)
Параметр Endianness формата : Big
Идентификатор кодека : 2000
Продолжительность : 23 м.
Вид битрейта : Постоянный
Битрейт : 192 Кбит/сек
Каналы : 2 канала
Расположение каналов : Front: L R
Частота : 48,0 КГц
Частота кадров : 31,250 кадров/сек (1536 spf)
Метод сжатия : С потерями
Размер потока : 31,9 Мбайт (9%)
Выравнивание : Разделение по промежуткам
Продолжительность промежутка : 40 мс. (1,00 видеокадр)
Время предзагрузки промежутка : 500 мс.
Download / Скачать

Хотите скачать бесплатно? Зарегистрируйтесь на сайте (ссылка на регистрацию). Pirat.ca - самый быстрый торрент трекер в рунете!

Как скачивать  ·   Что такое торрент  ·   Рейтинг и ограничения

yura_guru

Лоцман

Пост 28-Ноя-2016 03:04 (спустя 1 день 11 часов)

[Q] 

Посмотрел три серии из шести. Они вообще не связанны между собой. Пытаюсь найти смысл...
[Профиль]  [ЛС] 
Показать сообщения:    
Ответить на тему

Текущее время: Сегодня 17:38

Часовой пояс: GMT + 4



Вы не можете начинать темы
Вы не можете отвечать на сообщения
Вы не можете редактировать свои сообщения
Вы не можете удалять свои сообщения
Вы не можете голосовать в опросах
Вы не можете прикреплять файлы к сообщениям
Вы не можете скачивать файлы

▼ Вниз