ML
     
  Уважаемый Гость!
Вы можете поддержать проект и зарегистрироваться у наших партнеров - онлайн-стратегия MyLands. При регистрации в игре Вы получите код, который сможете активировать после регистрации на pirat.ca и получить 1000 дублонов.

Ваш код:
bc31d8aef74c92e19ad67e34a8fa63c3b9b812fb
 
     

Мерлин / Merlin / Сезон: 1 / Серии: 13 из 13 (Джонни Капс / Johnny Capps, ...) [2008 г., фэнтези, драма, приключения, семейный, DVDRip] MVO (ТВ3) + Original (Eng)

Ответить на тему
 
Автор
Сообщение

Пост 27-Ноя-2016 20:24

[Q] 

somik

Легенда

-Мерлин / Merlin-- Производство: Великобритания
Жанр: фэнтези, драма, приключения, семейный
Год выпуска: 2008 г.
Продолжительность: 00:44:00
Мировая премьера: 20 сентября 2008
Российская премьера: 23 октября 2009
Дата выхода DVD: 12 августа 2010, «Новый Диск»
Перевод: Профессиональный (многоголосый, закадровый) [ТВ3]
Оригинальный аудиопоток: английский
Режиссер: Джонни Капс / Johnny Capps, ...-В ролях: Колин Морган, Энджел Колби, Брэдли Джеймс, Кэти МакГрат, Энтони Хед, Ричард Уилсон, Руперт Янг, Эмилия Фокс, Майкл Кронин, Мишель Райан, Эйн Мэкен, Том Эллис, Эйса Баттерфилд, Кэролайн Фабер, Сантьяго Кабрера, Элис Паттен, Адам Годли, Сара Пэриш, Дэвид Дархэм, Майкл Дженн, Лаура Доннелли, Кэлам Макферсон, Гари Оливер, Рик Инглиш, Тревор Селлерс, Эд Коулмэн, Миранда Рэйсон, Ив Майлс, Луиз Дилан-Описание: Королевство Камелот погружено в хаос. Чародейство и волшебство сеют смуту среди людей. Пришедший к власти Утер Пендрагон запрещает колдовство под страхом смерти, изгоняет волшебников, убивает всех драконов, оставляя в назидание лишь одного. Через 20 лет в Камелот прибывает Мерлин, уроженец маленькой деревушки, рождённый с волшебными способностями. Он становится помощником придворного лекаря, Гаюса, который помогает ему найти предназначение его даров.
Выполняя одно из поручений Гаюса, он ввязывается в стычку с воином, который оказывается сыном короля, Артуром, и попадает в тюрьму. Там он впервые слышит зов дракона, не доступный никому из обычных людей. Этот голос преследует Мерлина во сне, и в конце концов он следует ему в подземелье замка, где заточен дракон. Он открывает Мерлину, что его предназначение — помочь принцу Артуру, будущему королю Камелота, объединить враждующие королевства острова Альбион.-
Качество видео: DVDRip
Контейнер: AVI
Видео кодек: XviD
Аудио кодек: MP3
Видео: 640x352 (1.82:1), 25 fps, XviD MPEG-4 ~964 kbps avg, 0.17 bit/pixel
Аудио #1: 48 kHz, MPEG Layer 3, 2 ch, ~128.00 kbps avg
Аудио #2: 48 kHz, MPEG Layer 3, 2 ch, ~130.23 kbps avg
Cубтитры: отсутствуют
Сатурн, 2013 год
Номинации (1):
Лучший сериал для молодежи на ТВ
I`m a sorcerer. I have magic.
Это был момент, которого я ждала в течение всего сериала. Почти каждую серию непроизвольно нервничала, но…
В реальной истории Мерлин — умудренный опытом старик, окруженный почетом из-за владения магией. Здесь же все по-другому. В Камелот приходит подросток, которому суждено спасти (и не раз!) королевство, причем мешать ему будут все: и «плохие», и «хорошие». Этому Мерлину сложнее во много раз. Он сам еще во многом глупый и наивный, не понимает, какой силы магический дар ему достался. Смущенная обаятельная улыбка, очаровательная лопоухость и исполнительность сочетаются с решительностью, храбростью и желанием спасти всех, хотя, казалось бы, ему и одного Артура должно хватать.
Принц Артур удался на славу. Умопомрачительная красота, смазливость и мерзкий характер избалованного всеобщим вниманием наследника. В начале он действительно был «венценосным ослом» и в некоторых моментах, особенно когда издевался над Мерлином, хотелось его придушить. Но при всех недостатках Артур затыкает амбиции куда подальше и мчится защищать Камелот, вдохновлять войска или спасать слугу.
Моргану сначала было даже жалко. Насколько она красивая в первых сезонах, настолько страшная и запущенная в конце. Обидно, что талант (кстати, немаленький), Моргана потратила на месть.
Я, конечно, знала, чем все должно кончиться, но все равно надеялась до последнего, что создатели сериала и здесь переиначат историю. На последних минутах последней серии честно прорыдала. А значит, фильм многого стоит.
Не нашла «провальных» героев — по-моему, все актеры на своих местах. Единственное, что напрягло — внешность Гвиневры, вот уж чего не ожидала… Но в чувства поверила безоговорочно.
Наверное, самое важное, что сериал полон хорошего юмора. Над каждой серией можно хохотать (в одних моментах), но в то же время и грустить. Советую смотреть всем, кто любит фильмы с «красивой картинкой», где честь и долг стоят на первом месте и тем, кто любит смотреть на красивых главных героев.
10 из 10
P.S. А фехтует Артур потрясающе!
Общее
Полное имя : F:\Мерлин (2009)\Merlin.S01.2008.DVDRip.[pirat.ca]\Merlin_S01-E01.avi
Формат : AVI
Формат/Информация : Audio Video Interleave
Размер файла : 391 Мбайт
Продолжительность : 44 м.
Режим общего битрейта : Переменный
Общий поток : 1242 Кбит/сек
Программа кодирования : VirtualDubMod 1.5.10.2 (build 2542/release)
Библиотека кодирования : VirtualDubMod build 2542/release
Видео
Идентификатор : 0
Формат : MPEG-4 Visual
Профиль формата : Advanced [email protected]
Параметр BVOP формата : 2
Параметр QPel формата : Нет
Параметр GMC формата : Без точки перехода
Параметр матрицы формата : Default (H.263)
Режим смешивания : Сжатый битовый поток
Идентификатор кодека : XVID
Идентификатор кодека/Подсказка : XviD
Продолжительность : 44 м.
Битрейт : 966 Кбит/сек
Ширина : 640 пикселей
Высота : 352 пикселя
Соотношение сторон : 16:9
Частота кадров : 25,000 кадров/сек
Цветовое пространство : YUV
Субдискретизация насыщенности : 4:2:0
Битовая глубина : 8 бит
Тип развёртки : Прогрессивная
Метод сжатия : С потерями
Бит/(Пиксели*Кадры) : 0.172
Размер потока : 305 Мбайт (78%)
Библиотека кодирования : XviD 1.2.0SMP (UTC 2006-01-08)
Аудио #1
Идентификатор : 1
Формат : MPEG Audio
Версия формата : Version 1
Профиль формата : Layer 3
Режим : Joint stereo
Расширение режима : MS Stereo
Идентификатор кодека : 55
Идентификатор кодека/Подсказка : MP3
Продолжительность : 44 м.
Вид битрейта : Постоянный
Битрейт : 128 Кбит/сек
Каналы : 2 канала
Частота : 48,0 КГц
Метод сжатия : С потерями
Размер потока : 40,3 Мбайт (10%)
Выравнивание : Соединение по промежуткам
Продолжительность промежутка : 40 мс. (1,00 видеокадр)
Время предзагрузки промежутка : 504 мс.
Аудио #2
Идентификатор : 2
Формат : MPEG Audio
Версия формата : Version 1
Профиль формата : Layer 3
Режим : Joint stereo
Идентификатор кодека : 55
Идентификатор кодека/Подсказка : MP3
Продолжительность : 44 м.
Вид битрейта : Переменный
Битрейт : 128 Кбит/сек
Каналы : 2 канала
Частота : 48,0 КГц
Метод сжатия : С потерями
Размер потока : 41,0 Мбайт (10%)
Выравнивание : Соединение по промежуткам
Продолжительность промежутка : 24 мс. (0,60 видеокадр)
Время предзагрузки промежутка : 141 мс.
Библиотека кодирования : LAME3.90.
Настройки программы : -m j -V 4 -q 2 -lowpass 17.6 --abr 128
Download / Скачать

Хотите скачать бесплатно? Зарегистрируйтесь на сайте (ссылка на регистрацию). Pirat.ca - самый быстрый торрент трекер в рунете!

Как скачивать  ·   Что такое торрент  ·   Рейтинг и ограничения

Показать сообщения:    
Ответить на тему

Текущее время: Сегодня 12:00

Часовой пояс: GMT + 4



Вы не можете начинать темы
Вы не можете отвечать на сообщения
Вы не можете редактировать свои сообщения
Вы не можете удалять свои сообщения
Вы не можете голосовать в опросах
Вы не можете прикреплять файлы к сообщениям
Вы не можете скачивать файлы

▼ Вниз