ML
     
  Уважаемый Гость!
Вы можете поддержать проект и зарегистрироваться у наших партнеров - онлайн-стратегия MyLands. При регистрации в игре Вы получите код, который сможете активировать после регистрации на pirat.ca и получить 1000 дублонов.

Ваш код:
1a5b0a965618b2c406d4279ec9924ee6282c60cf
 
     

Игра в молчанку / Game of Silence / Сезон: 1 / Серии: 10 из 10 (Деран Сарафян / Deran Sarafian, ...) [2016 г., драма, WEB-DL, 1080p] MVO (IdeaFilm) +Sub (Eng), + Original (Eng)

Ответить на тему
 
Автор
Сообщение

Пост 29-Ноя-2016 18:22

[Q] 

somik

Легенда

-Игра в молчанку / Game of Silence-- Производство: США, Tims Productions, Intrigue, David Hudgens Productions
Жанр: драма
Год выпуска: 2016 г.
Продолжительность: 00:43:00
Мировая премьера: 12 апреля 2016
Перевод: Профессиональный (многоголосый, закадровый) [IdeaFilm]
Оригинальный аудиопоток: английский
Режиссер: Деран Сарафян / Deran Sarafian, ...-В ролях: Дэвид Лайонс, Никки Томлинсон, Эйлин Грубба, Лоренц Тейт, Клер ван дер Бом, Эшли ЛеКонте Кэмпбелл, Шэрон Гаррисон, Терри Эбни, Дейдри Генри, ...-Описание: В центре сюжета преуспевающий адвокат из Атланты и его старые приятели. Когда-то герои были лучшими друзьями, но потом произошла страшная непоправимая трагедия. Их пути разошлись, и они постарались забыть о случившемся в далёком детстве и поклялись молчать об этом. Они думали, что тайна, которую они хранили 25 лет, никогда не будет раскрыта, но ошиблись. Призраки прошедших дней неожиданно вновь появляются, и могут разрушить их жизни, и этого допустить нельзя. Собравшись вместе, они нарушат обет молчания и сделают всё, чтобы их прошлое не уничтожило настоящее. Если секрет, хранимый два десятилетия, узнают посторонние, их судьбы разрушатся: семьи, карьера, всё полетит под откос. Но смогут ли бывшие товарищи, найти взаимопонимание?-
Качество видео: WEB-DL
Контейнер: MKV
Стандарт разрешения: 1080p
Видео кодек: MPEG4 AVC
Аудио кодек: AC3
Видео: 1912x1072, ~5000 kbps, 23,976 fps
Аудио: AC-3, 6 ch, 384 kbps (Rus) - IdeaFilm
Аудио #2: AC-3, 6 ch, 384 kbps (Eng)
Cубтитры: английские
Формат субтитров: softsub (SSA/ASS)
Доп. информация о субтитрах: включаемые (SDH)
Общее
Уникальный идентификатор : 205469001219618069966463513353550927009 (0x9A93E3E4C05E772C90937BFC798594A1)
Полное имя : E:\Игра в молчанку Game of Silence [S01] (2016)\Game of Silence.S01.2016.WEB-DL.1080p.IdeaFilm.[pirat.ca]\Game of Silence E01 S01 2016 WEB-DL 1080p IdeaFilm.mkv
Формат : Matroska
Версия формата : Version 2
Размер файла : 1,76 Гбайт
Продолжительность : 43 м.
Общий поток : 5861 Кбит/сек
Дата кодирования : UTC 2016-07-27 22:41:57
Программа кодирования : mkvmerge v4.0.0 ('The Stars were mine') сборка от Jun 6 2010 16:18:42
Библиотека кодирования : libebml v1.0.0 + libmatroska v1.0.0
Видео
Идентификатор : 1
Формат : AVC
Формат/Информация : Advanced Video Codec
Профиль формата : [email protected]
Параметр CABAC формата : Да
Параметр ReFrames формата : 4 кадра
Идентификатор кодека : V_MPEG4/ISO/AVC
Продолжительность : 43 м.
Битрейт : 4977 Кбит/сек
Ширина : 1912 пикселей
Высота : 1072 пикселя
Соотношение сторон : 16:9
Режим частоты кадров : Постоянный
Частота кадров : 23,976 кадра/сек
Цветовое пространство : YUV
Субдискретизация насыщенности : 4:2:0
Битовая глубина : 8 бит
Тип развёртки : Прогрессивная
Бит/(Пиксели*Кадры) : 0.101
Размер потока : 1,50 Гбайт (85%)
Язык : English
Default : Нет
Forced : Нет
Цветовой диапазон : Limited
Основные цвета : BT.709
Характеристики трансфера : BT.709
Коэффициенты матрицы : BT.709
Аудио #1
Идентификатор : 2
Формат : AC-3
Формат/Информация : Audio Coding 3
Расширение режима : CM (complete main)
Параметр Endianness формата : Big
Идентификатор кодека : A_AC3
Продолжительность : 43 м.
Вид битрейта : Постоянный
Битрейт : 384 Кбит/сек
Каналы : 6 каналов
Расположение каналов : Front: L C R, Side: L R, LFE
Частота : 48,0 КГц
Частота кадров : 31,250 кадров/сек (1536 spf)
Метод сжатия : С потерями
Размер потока : 118 Мбайт (7%)
Заголовок : IdeaFilm
Язык : Russian
Default : Нет
Forced : Нет
Аудио #2
Идентификатор : 3
Формат : AC-3
Формат/Информация : Audio Coding 3
Расширение режима : CM (complete main)
Параметр Endianness формата : Big
Идентификатор кодека : A_AC3
Продолжительность : 43 м.
Вид битрейта : Постоянный
Битрейт : 384 Кбит/сек
Каналы : 6 каналов
Расположение каналов : Front: L C R, Side: L R, LFE
Частота : 48,0 КГц
Частота кадров : 31,250 кадров/сек (1536 spf)
Метод сжатия : С потерями
Размер потока : 118 Мбайт (7%)
Язык : English
Default : Нет
Forced : Нет
Текст
Идентификатор : 4
Формат : UTF-8
Идентификатор кодека : S_TEXT/UTF8
Идентификатор кодека/Информация : UTF-8 Plain Text
Язык : English
Default : Нет
Forced : Нет
Download / Скачать

Хотите скачать бесплатно? Зарегистрируйтесь на сайте (ссылка на регистрацию). Pirat.ca - самый быстрый торрент трекер в рунете!

Как скачивать  ·   Что такое торрент  ·   Рейтинг и ограничения

Показать сообщения:    
Ответить на тему

Текущее время: Сегодня 23:51

Часовой пояс: GMT + 4



Вы не можете начинать темы
Вы не можете отвечать на сообщения
Вы не можете редактировать свои сообщения
Вы не можете удалять свои сообщения
Вы не можете голосовать в опросах
Вы не можете прикреплять файлы к сообщениям
Вы не можете скачивать файлы

▼ Вниз