ML
     
  Уважаемый Гость!
Вы можете поддержать проект и зарегистрироваться у наших партнеров - онлайн-стратегия MyLands. При регистрации в игре Вы получите код, который сможете активировать после регистрации на pirat.ca и получить 1000 дублонов.

Ваш код:
21acd5966619d49ad0b90c3305467b4646cc11a8
 
     

Стэн против сил зла / Stan Against Evil / Сезон: 1 / Серии: 8 из 8 (Джек Бишоп / Jack Bishop, ...) [2016 г., Ужасы, Фэнтези, Комедия, WEB-DL, 1080p] MVO (HamsterStudio)

Ответить на тему
 
Автор
Сообщение

Пост 01-Дек-2016 17:52

[Q] 

somik

Легенда

-Стэн против сил зла / Stan Against Evil-- Производство: США, Arts Entertainment, Radical Media
Жанр: Ужасы, Фэнтези, Комедия
Год выпуска: 2016 г.
Продолжительность: 00:21:50
Мировая премьера: 2 ноября 2016
Перевод: Любительский (многоголосый, закадровый) [HamsterStudio]
Режиссер: Джек Бишоп / Jack Bishop, ...-В ролях: Джон К. МакГинли, Нат Муни, Дебора Бэйкер мл., Джанет Вэрни, Даниэль Фелан, Грегори Нассиф Ст. Джон, Ник Армстронг, Мика Шэйн Боллинджер-Описание: Сварливый и принципиальный шериф городка Нью-Гэмпшир Стэнли Миллер теряет должность после того, как устраивает скандал в самый неподходящий момент — на похоронах собственной жены. Вскоре новый шериф Иви Баррет узнает, что городу угрожают свирепые демоны. Она уговаривает Стэнли помочь ей отразить атаку монстров.-
Качество видео: WEB-DL
Контейнер: MKV
Стандарт разрешения: 1080p
Видео кодек: MPEG4 AVC
Аудио кодек: AC3
Видео: 1916x1076, ~5200 Кбит/сек, 23,976 кадра/сек
Аудио: AC3, 6 каналов, 384 Кбит/сек, 48,0 КГц
Cубтитры: отсутствуют
Вам нравятся комедийные ужастики? Тогда вам сюда.
Отличный комедийный сериал, с примесью всяких мистических существ, заклинаний, ненормальных городских жителей, превращений и т. д. Скажу по секрету, даже сукубы наведываются&
Это маленький американский городок, в котором все шерифы не доживают до пенсии изза проклятия ведьмы. Кроме одного. В тоже время, в этот городок приезжает новый молодой шериф. И понеслось! Борьба с нечестью всеми возможными средствами и заклинаниями. Все обыграно весело и со специфическим юмором.
Почему со специфическим? Да потому-что нашего шерифа-долгожителя играет, прекрасный во всех отношениях, Джон К. МакГинли, многим знакомый по роли доктора Кокса в сериале Клиника. Тут он тоже замечательный, не оторваться. Остальных актеров, честно признаться, ранее не встречала (или не помню), но они тоже молодцы. Все так непринужденно и естественно.
Многие сравнивают этот сериал с сериалом Эш против зловещих мертвецов. Не понимаю почему?! Сериалы абсолютно не похожи. В Стэне есть изюминка и он какой-то уютный. И при этом он наполнен Коксовским юмором.
Подводя итог скажу: если вам нравятся
- маленькие городки, куда наведывается всеразличная нечисть;
- уютные атрибуты офиса шерифа;
- приятная атмосфера милых комедийных ужастиков;
- заклинания, проклятия, ведьмы
и 20-тиминутные серии без закадрового смеха, но которые вас заставят улыбнуться и хорошо провести время,
тогда вам сюда.
7 из 10
Общее
Уникальный идентификатор : 215537680943717565379612582448531668182 (0xA2270C21937355F8A63A30B5758A7CD6)
Полное имя : J:\Стэн против сил зла Stan Against Evil (2016)\Stan Against Evil.S01.2016.WEB-DL.1080р.[pirat.ca]\Stan Against Evil.S01.Е01.2016.WEB-DL.1080р.[pirat.ca].mkv
Формат : Matroska
Версия формата : Version 4 / Version 2
Размер файла : 883 Мбайт
Продолжительность : 22 м.
Режим общего битрейта : Переменный
Общий поток : 5586 Кбит/сек
Дата кодирования : UTC 2016-11-02 20:57:29
Программа кодирования : mkvmerge v7.8.0 ('River Man') 64bit built on Mar 27 2015 16:31:37
Библиотека кодирования : libebml v1.3.1 + libmatroska v1.4.2
Видео
Идентификатор : 1
Формат : AVC
Формат/Информация : Advanced Video Codec
Профиль формата : [email protected]
Параметр CABAC формата : Да
Параметр ReFrames формата : 3 кадра
Идентификатор кодека : V_MPEG4/ISO/AVC
Продолжительность : 22 м.
Вид битрейта : Переменный
Битрейт : 5200 Кбит/сек
Максимальный битрейт : 16,0 Мбит/сек
Ширина : 1916 пикселей
Высота : 1076 пикселей
Соотношение сторон : 16:9
Режим частоты кадров : Постоянный
Частота кадров : 23,976 (24000/1001) кадра/сек
Частота кадров в оригинале : 23,976 (23976/1000) кадра/сек
Стандарт вещания : NTSC
Цветовое пространство : YUV
Субдискретизация насыщенности : 4:2:0
Битовая глубина : 8 бит
Тип развёртки : Прогрессивная
Бит/(Пиксели*Кадры) : 0.105
Размер потока : 822 Мбайт (93%)
Default : Да
Forced : Нет
Цветовой диапазон : Limited
Аудио
Идентификатор : 2
Формат : AC-3
Формат/Информация : Audio Coding 3
Расширение режима : CM (complete main)
Параметр Endianness формата : Big
Идентификатор кодека : A_AC3
Продолжительность : 22 м.
Вид битрейта : Постоянный
Битрейт : 384 Кбит/сек
Каналы : 6 каналов
Расположение каналов : Front: L C R, Side: L R, LFE
Частота : 48,0 КГц
Частота кадров : 31,250 кадров/сек (1536 spf)
Метод сжатия : С потерями
Размер потока : 60,7 Мбайт (7%)
Заголовок : HamsterStudio
Язык : Russian
Default : Да
Forced : Да
Download / Скачать

Хотите скачать бесплатно? Зарегистрируйтесь на сайте (ссылка на регистрацию). Pirat.ca - самый быстрый торрент трекер в рунете!

Как скачивать  ·   Что такое торрент  ·   Рейтинг и ограничения

Aleks44

Гроза морей

Пост 01-Дек-2016 21:41 (спустя 3 часа)

[Q] 

Я лучше посмотрю сериал "Эш против Зловещих мертвецов" чем эту неудачную пародию
[Профиль]  [ЛС] 

ajoja

Лоцман

Пост 02-Дек-2016 15:58 (спустя 18 часов)

[Q] 

Кстати ни чего так. Всего три часа на просмотр. Даже интересно местами, правда шутки ещё тупее чем в зловещих мертвецах.
[Профиль]  [ЛС] 
Показать сообщения:    
Ответить на тему

Текущее время: Сегодня 23:19

Часовой пояс: GMT + 4



Вы не можете начинать темы
Вы не можете отвечать на сообщения
Вы не можете редактировать свои сообщения
Вы не можете удалять свои сообщения
Вы не можете голосовать в опросах
Вы не можете прикреплять файлы к сообщениям
Вы не можете скачивать файлы

▼ Вниз