ML
     
  Уважаемый Гость!
Вы можете поддержать проект и зарегистрироваться у наших партнеров - онлайн-стратегия MyLands. При регистрации в игре Вы получите код, который сможете активировать после регистрации на pirat.ca и получить 1000 дублонов.

Ваш код:
ba41f7961e0b4717aed6a401d955262223b8f6c4
 
     

Скользящие / Sliders (Сезон: 1 / Серии: 1-10 из 10и) (Tracy Torme, Robert K. Weiss) [1995 г., Приключения, Фантастика, Боевик, TVRip] DVO

Ответить на тему
 
Автор
Сообщение

Пост 25-Фев-2012 11:47

[Q] 

petrovich400

Штурман

Скользящие / Sliders
(Сезон: 1 / Серии: 1-10)
Год выпуска: 1995
Мировая премьера: 22 марта 1995
Производство: США
Жанр: Приключения, Фантастика, Боевик
Продолжительность серии: 00:42
Перевод: Профессиональный (двухголосый, закадровый)
Субтитры: отсутствуют
Режиссер: Tracy Torme, Robert K. Weiss
В ролях
Джерри О'Коннел, Сабрина Ллойд, Джон Рис-Дэвис, Клевант Деррикс, Кери Вюрер, Чарли О'Коннел, Роберт Флойд, Темби Локке
Описание
SLIDERS - это фантастический сериал про студента-физика Куина Мелори, который, основываясь на теории Энштейна, проводил эксперименты по исследованию гравитации. В ходе них он вместо гравитационной машины получил машину-портал позволяющую перемещаться ("скользить") в параллельные миры. Куин вместе со своим учителем профессором Артуро, подружкой Вейд и случайно попавшим в воронку портала Рембрандтом Брауном отправился в "небольшое" путешествие в параллельный мир. Но им пришлось срочно эвакуироваться из этого мира, сбив при этом настройки таймера, контролирующего их скольжения. И теперь они не могут вернуться домой и не знают в какой следующий мир попадут...
Источник/Качество: TVRip
Формат: AVI
Видео кодек: XviD
Аудио кодек: MP3
Видео: 640x480 (1.33:1), 25 fps, XviD MPEG-4 ~1186 kbps avg, 0.15 bit/pixel
Аудио: 48 kHz, MPEG Layer 3, 2 ch, ~192.00 kbps avg
Общее
Полное имя :\Скользящие\Сезон 1\sliders.s01e02_Pilot, part II.avi
Формат : AVI
Формат/Информация : Audio Video Interleave
Размер файла : 400 Мбайт
Продолжительность : 40 м.
Общий поток : 1388 Кбит/сек
Библиотека кодирования : VirtualDub-MPEG2 build 23858/release
Видео
Идентификатор : 0
Формат : MPEG-4 Visual
Профиль формата : Advanced [email protected]
Параметр BVOP формата : 1
Параметр QPel формата : Нет
Параметр GMC формата : Без точки перехода
Параметр матрицы формата : Default (H.263)
Режим смешивания : Сжатый битовый поток
Идентификатор кодека : XVID
Идентификатор кодека/Подсказка : XviD
Продолжительность : 40 м.
Битрейт : 1187 Кбит/сек
Ширина : 640 пикселей
Высота : 480 пикселей
Соотношение сторон : 4:3
Частота кадров : 25,000 кадров/сек
Цветовое пространство : YUV
Субдискретизация насыщенности : 4:2:0
Битовая глубина : 8 бит
Тип развёртки : Прогрессивная
Метод сжатия : С потерями
Бит/(Пиксели*Кадры) : 0.155
Размер потока : 342 Мбайт (85%)
Библиотека кодирования : XviD 1.1.0 (UTC 2005-11-22)
Аудио
Идентификатор : 1
Формат : MPEG Audio
Версия формата : Version 1
Профиль формата : Layer 3
Идентификатор кодека : 55
Идентификатор кодека/Подсказка : MP3
Продолжительность : 40 м.
Вид битрейта : Постоянный
Битрейт : 192 Кбит/сек
Каналы : 2 канала
Частота : 48,0 КГц
Метод сжатия : С потерями
Размер потока : 55,3 Мбайт (14%)
Выравнивание : Разделение по промежуткам
Продолжительность промежутка : 40 мс. (1,00 видеокадр)
Время предзагрузки промежутка : 500 мс.
Download / Скачать

Хотите скачать бесплатно? Зарегистрируйтесь на сайте (ссылка на регистрацию). Pirat.ca - самый быстрый торрент трекер в рунете!

Как скачивать  ·   Что такое торрент  ·   Рейтинг и ограничения

Пост 25-Фев-2012 12:17 (спустя 30 минут)

Топик был перенесен из форума Сериалы в форум Зарубежные сериалы

gEmOkPaT
 

max21

Штурман

Пост 04-Июл-2012 21:30 (спустя 4 месяца 8 дней)

[Q] 

[Профиль]  [ЛС] 

Evgen

Морской Волк

Пост 04-Июл-2012 22:14 (спустя 43 минуты)

[Q] 

ОООООООООООООООООООООООфигенный сериальчик я из дома ни выходил смотрел неотводя глаз

_________________
[Профиль]  [ЛС] 

dmsushko

Корсар

171

Пост 20-Авг-2012 04:51 (спустя 1 месяц 15 дней)

[Q] 


Отличный был сериал, жаль что к концу 3-го сезона его FOX слили... ИМХО, 4 и 5 сезон без полюбившихся актёров уже не то! Да и на SciFi сериал закрыли не доведя до конца :(
з.ы. Облазил весь тырнет - не могу никак найти в одноголосом переводе Сергея Визгунова, только на продажу.

_________________

[Профиль]  [ЛС] 

yazon_nick

Лоцман

Пост 26-Авг-2012 08:40 (спустя 6 дней)

[Q] 

В 96 году пиратские видеокассеты с 1 сезоном "Sliders" покупал, очень понравился. А с 2 сезоном купил 6 серий посмотрел и решил, остальные по зомбоящику.
Продолжение сериала не планировалось после окончания первого сезона, однако протесты фанов убедили руководство FOX Network выпустить в эфир второй сезон. Однако, при этом они начали настаивать на введении в сериал большего элемента action и удалении политической сатиры.
В результате конфликта с FOX Network, вызванным в том числе и столь резкой сменой стиля, в середине третьего сезона сериал покинул актёр Джон Рис-Дэвис.В качестве замены к команде присоединился персонаж Кэри Вюрер — Мэгги Беккет (благодаря ей и Дэвиду Пекинпа ушла Сабрина Ллойд), и после этого шоу приобретает характер чистого action.Результатом этого стало столь резкое падение рейтингов, что FOX Network закрыло шоу.После закрытия шоу права на него были выкуплены каналом SciFi. Главным поставили сказочного урода Дэвида Пекинпа. И наступила полная жопа.

_________________
Не покупайте пиратскую продукцию - скачивайте её из интернета!
[Профиль]  [ЛС] 

v2m2

Лоцман

Пост 24-Янв-2013 13:15 (спустя 4 месяца 29 дней)

[Q] 

[Профиль]  [ЛС] 

CHARLI2236

1097

Пост 25-Июл-2013 18:23 (спустя 6 месяцев 1 день)

[Q] 

3

_________________
[Профиль]  [ЛС] 

kisu

Гроза морей

Пост 02-Ноя-2014 14:48 (спустя 1 год 3 месяца)

[Q] 

спасибо!хороший сериал.смотрел в юности,очень понравился!
[Профиль]  [ЛС] 

nikolass1989

Корсар

89

Пост 28-Дек-2014 01:10 (спустя 1 месяц 25 дней)

[Q] 

Когда смотрел по ТВ ни одной серии не пропускал,только его показывали не по порядку
[Профиль]  [ЛС] 

янка-сан

Гроза морей

Пост 18-Дек-2015 21:21 (спустя 11 месяцев 21 день)

[Q] 

спасибо) как же он мне нравился когда то) Лови бочку
[Профиль]  [ЛС] 
Показать сообщения:    
Ответить на тему

Текущее время: Сегодня 14:44

Часовой пояс: GMT + 4



Вы не можете начинать темы
Вы не можете отвечать на сообщения
Вы не можете редактировать свои сообщения
Вы не можете удалять свои сообщения
Вы не можете голосовать в опросах
Вы не можете прикреплять файлы к сообщениям
Вы не можете скачивать файлы

▼ Вниз