ML
     
  Уважаемый Гость!
Вы можете поддержать проект и зарегистрироваться у наших партнеров - онлайн-стратегия MyLands. При регистрации в игре Вы получите код, который сможете активировать после регистрации на pirat.ca и получить 1000 дублонов.

Ваш код:
f612af22ea70acf5cbe90707ac5a076d215f8f7f
 
     

Скользящие / Sliders (Сезон: 2 / Серии: 1-13 из 13и) (Tracy Torme, Robert K. Weiss) [1996 г., Приключения, Фантастика, Боевик, TVRip] DVO

Ответить на тему
 
Автор
Сообщение

Пост 25-Фев-2012 12:34

[Q] 

petrovich400

Штурман

Скользящие / Sliders
(Сезон: 2 / Серии: 1-13)
Год выпуска: 1996
Производство: США
Жанр: Приключения, Фантастика, Боевик
Продолжительность серии: 00:42
Перевод: Профессиональный (двухголосый, закадровый)
Субтитры: отсутствуют
Режиссер: Tracy Torme, Robert K. Weiss
В ролях
Джерри О'Коннел, Сабрина Ллойд, Джон Рис-Дэвис, Клевант Деррикс, Кери Вюрер, Чарли О'Коннел, Роберт Флойд, Темби Локке
Описание
"Sliders" - это фантастический сериал про студента-физика Куина Мелори, который хотел построить антигравитатор, а получил дыру в параллельные миры. Куин вместе со своим учителем профессором Артуро, подружкой Вейд и случайно попавшим в воронку портала Рембрандтом Брауном отправился в "небольшое" путешествие в параллельный мир. Но им пришлось срочно эвакуироваться из этого мира, сбив при этом настройки таймера, контролирующего их скольжения. И теперь они не могут вернуться домой и не знают в какой следующий мир попадут.
Так их и мотает по мирам, которые то сильно отличаются от первого (например, мир матриархата, или мир, где Америкой правят коммунисты), то почти никак. Серии объединяет выпадение из дыры на некотором расстоянии от земли, благодаря чему все спутники Куина (как и он сам) постоянно ходят в синяках и грозятся придушить изобретателя.
Всего выпущено 5 сезонов, здесь вы видите второй.
Источник/Качество: TVRip
Формат: AVI
Видео кодек: XviD
Аудио кодек: MP3
Видео: 640x480 (1.33:1), 25 fps, XviD MPEG-4 ~1006 kbps avg, 0.13 bit/pixel
Аудио: 48 kHz, MPEG Layer 3, 2 ch, ~192.00 kbps avg
Общее
Полное имя :\Скользящие\Сезон 2\sliders.s02e02_Love Gods.avi
Формат : AVI
Формат/Информация : Audio Video Interleave
Размер файла : 368 Мбайт
Продолжительность : 42 м.
Общий поток : 1208 Кбит/сек
Библиотека кодирования : VirtualDub-MPEG2 build 23858/release
Видео
Идентификатор : 0
Формат : MPEG-4 Visual
Профиль формата : Advanced [email protected]
Параметр BVOP формата : 2
Параметр QPel формата : Нет
Параметр GMC формата : Без точки перехода
Параметр матрицы формата : Default (H.263)
Режим смешивания : Сжатый битовый поток
Идентификатор кодека : XVID
Идентификатор кодека/Подсказка : XviD
Продолжительность : 42 м.
Битрейт : 1006 Кбит/сек
Ширина : 640 пикселей
Высота : 480 пикселей
Соотношение сторон : 4:3
Частота кадров : 25,000 кадров/сек
Цветовое пространство : YUV
Субдискретизация насыщенности : 4:2:0
Битовая глубина : 8 бит
Тип развёртки : Прогрессивная
Метод сжатия : С потерями
Бит/(Пиксели*Кадры) : 0.131
Размер потока : 306 Мбайт (83%)
Библиотека кодирования : XviD 1.2.0.dev47 (UTC 2006-11-01)
Аудио
Идентификатор : 1
Формат : MPEG Audio
Версия формата : Version 1
Профиль формата : Layer 3
Режим : Joint stereo
Идентификатор кодека : 55
Идентификатор кодека/Подсказка : MP3
Продолжительность : 42 м.
Вид битрейта : Постоянный
Битрейт : 192 Кбит/сек
Каналы : 2 канала
Частота : 48,0 КГц
Метод сжатия : С потерями
Размер потока : 58,4 Мбайт (16%)
Выравнивание : Разделение по промежуткам
Продолжительность промежутка : 40 мс. (1,00 видеокадр)
Время предзагрузки промежутка : 500 мс.
Download / Скачать

Хотите скачать бесплатно? Зарегистрируйтесь на сайте (ссылка на регистрацию). Pirat.ca - самый быстрый торрент трекер в рунете!

Как скачивать  ·   Что такое торрент  ·   Рейтинг и ограничения

Пост 25-Фев-2012 18:24 (спустя 5 часов)

Топик был перенесен из форума Сериалы в форум Зарубежные сериалы

gEmOkPaT
 

CHARLI2236

1098

Пост 25-Июл-2013 18:24 (спустя 1 год 5 месяцев)

[Q] 

4

_________________
[Профиль]  [ЛС] 

max2008a

Лоцман

Пост 09-Апр-2015 21:35 (спустя 1 год 8 месяцев)

[Q] 

озвучка чья ? СТС или СайФай ?
[Профиль]  [ЛС] 
Показать сообщения:    
Ответить на тему

Текущее время: Сегодня 00:28

Часовой пояс: GMT + 4



Вы не можете начинать темы
Вы не можете отвечать на сообщения
Вы не можете редактировать свои сообщения
Вы не можете удалять свои сообщения
Вы не можете голосовать в опросах
Вы не можете прикреплять файлы к сообщениям
Вы не можете скачивать файлы

▼ Вниз