ML
     
  Уважаемый Гость!
Вы можете поддержать проект и зарегистрироваться у наших партнеров - онлайн-стратегия MyLands. При регистрации в игре Вы получите код, который сможете активировать после регистрации на pirat.ca и получить 1000 дублонов.

Ваш код:
4fbd9898b6f10799a3e8edf60f31febd2bc15453
 
     

Скользящие / Sliders (Сезон: 3 / Серии: 1-25 из 25и) (Tracy Torme, Robert K. Weiss) [1997 г., Приключения, Фантастика, Боевик, DVDRip] MVO

Ответить на тему
 
Автор
Сообщение

Пост 25-Фев-2012 13:31

[Q] 

petrovich400

Штурман

Скользящие / Sliders
(Сезон: 3 / Серии: 1-25)
Год выпуска: 1997
Производство: США
Жанр: Приключения, Фантастика, Боевик
Продолжительность серии: 00:44
Перевод: Профессиональный (Многоголосный закадровый)
Субтитры: отсутствуют
Режиссер: Tracy Torme, Robert K. Weiss
В ролях
Джерри О'Коннел, Сабрина Ллойд, Джон Рис-Дэвис, Клевант Деррикс, Кери Вюрер, Чарли О'Коннел, Роберт Флойд, Темби Локке
Описание
SLIDERS - это фантастический сериал про студента-физика Куина Мелори, который, основываясь на теории Энштейна, проводил эксперименты по исследованию гравитации. В ходе них он вместо гравитационной машины получил машину-портал позволяющую перемещаться ("скользить") в параллельные миры. Куин вместе со своим учителем профессором Артуро, подружкой Вейд и случайно попавшим в воронку портала Рембрандтом Брауном отправился в "небольшое" путешествие в параллельный мир. Но им пришлось срочно эвакуироваться из этого мира, сбив при этом настройки таймера, контролирующего их скольжения. И теперь они не могут вернуться домой и не знают в какой следующий мир попадут...
Источник/Качество: DVDRip
Формат: AVI
Видео кодек: DivX
Аудио кодек: MP3
Видео: 640x480 (1.33:1), 29.970 fps, DivX Codec 5.2.1 build 1328 ~956 kbps avg, 0.10 bit/pixel
Аудио: 48 kHz, MPEG Layer 3, 2 ch, ~96.00 kbps avg
Общее
Полное имя : \Скользящие\Сезон 3\3x04,''Sliders - The Guardian'' (DVD-Rip,Russian,1996).avi
Формат : AVI
Формат/Информация : Audio Video Interleave
Размер файла : 340 Мбайт
Продолжительность : 44 м.
Общий поток : 1066 Кбит/сек
Программа кодирования : Nandub v1.0rc2
Библиотека кодирования : Nandub build 1853/release
Видео
Идентификатор : 0
Формат : MPEG-4 Visual
Параметр BVOP формата : 1
Параметр QPel формата : Нет
Параметр GMC формата : Без точки перехода
Параметр матрицы формата : Default (H.263)
Режим смешивания : Сжатый битовый поток
Идентификатор кодека : DX50
Идентификатор кодека/Подсказка : DivX 5
Продолжительность : 44 м.
Битрейт : 956 Кбит/сек
Ширина : 640 пикселей
Высота : 480 пикселей
Соотношение сторон : 4:3
Частота кадров : 29,970 кадров/сек
Цветовое пространство : YUV
Субдискретизация насыщенности : 4:2:0
Битовая глубина : 8 бит
Тип развёртки : Прогрессивная
Метод сжатия : С потерями
Бит/(Пиксели*Кадры) : 0.104
Размер потока : 305 Мбайт (90%)
Библиотека кодирования : DivX 5.2.1 (WaffleDay) (UTC 2004-09-08)
Аудио
Идентификатор : 1
Формат : MPEG Audio
Версия формата : Version 1
Профиль формата : Layer 3
Идентификатор кодека : 55
Идентификатор кодека/Подсказка : MP3
Продолжительность : 44 м.
Вид битрейта : Постоянный
Битрейт : 96,0 Кбит/сек
Каналы : 2 канала
Частота : 48,0 КГц
Метод сжатия : С потерями
Задержка видео : 6 мс.
Размер потока : 30,6 Мбайт (9%)
Выравнивание : Соединение по промежуткам
Продолжительность промежутка : 24 мс. (0,72 видеокадр)
Время предзагрузки промежутка : 504 мс.
Download / Скачать

Хотите скачать бесплатно? Зарегистрируйтесь на сайте (ссылка на регистрацию). Pirat.ca - самый быстрый торрент трекер в рунете!

Как скачивать  ·   Что такое торрент  ·   Рейтинг и ограничения

Пост 25-Фев-2012 18:25 (спустя 4 часа)

Топик был перенесен из форума Сериалы в форум Зарубежные сериалы

gEmOkPaT
 

Remmer

Шкипер

Пост 25-Фев-2012 22:20 (спустя 8 часов)

[Q] 

Золото бы, товарисчи...

_________________
неизбежен
[Профиль]  [ЛС] 

Remmer

Шкипер

Пост 26-Фев-2012 13:49 (спустя 15 часов)

[Q] 

Джентльмены, за сутки не скачал НИЧЕГО, станьте на раздачу, плиз! Так хочется вспомнить детство.... :)

_________________
неизбежен
[Профиль]  [ЛС] 

CHARLI2236

1092

Пост 25-Июл-2013 18:24 (спустя 1 год 4 месяца)

[Q] 

5

_________________
[Профиль]  [ЛС] 

kelto

Шкипер

Пост 22-Июн-2014 01:25 (спустя 10 месяцев 27 дней)

[Q] 

Осталась у кого раздача? Желательно на все сезоны...
[Профиль]  [ЛС] 

max2008a

Лоцман

Пост 09-Апр-2015 21:37 (спустя 9 месяцев 17 дней)

[Q] 

Люди скачавшие отзавитесь, озвучка чья ? СТС или СайФай ?
[Профиль]  [ЛС] 

lorddragon

Лоцман

2

Пост 19-Май-2015 15:16 (спустя 1 месяц 9 дней)

[Q] 

Ребята, встаньте на раздачу пожалуйста! )

_________________
Приглашаю на мой канал - https://www.youtube.com/channel/UCDLJy6zsPV90GCkMTBxFw6g
[Профиль]  [ЛС] 
Показать сообщения:    
Ответить на тему

Текущее время: Сегодня 20:01

Часовой пояс: GMT + 4



Вы не можете начинать темы
Вы не можете отвечать на сообщения
Вы не можете редактировать свои сообщения
Вы не можете удалять свои сообщения
Вы не можете голосовать в опросах
Вы не можете прикреплять файлы к сообщениям
Вы не можете скачивать файлы

▼ Вниз