ML
     
  Уважаемый Гость!
Вы можете поддержать проект и зарегистрироваться у наших партнеров - онлайн-стратегия MyLands. При регистрации в игре Вы получите код, который сможете активировать после регистрации на pirat.ca и получить 1000 дублонов.

Ваш код:
c3360d664ceb84802c84b88ed062a5d134e2ba97
 
     

Скользящие / Sliders (Сезон: 4 / Серии: 1-22 из 22х) (Ричард Комптон, Джим Джонстон, Оскар Л. Косто) [1998 г., Приключения, Фантастика, Боевик, SATRip] DVO

Ответить на тему
 
Автор
Сообщение

Пост 25-Фев-2012 14:13

[Q] 

petrovich400

Штурман

Скользящие / Sliders
(Сезон: 4 / Серии: 1-22)
Год выпуска: 1998
Производство: США
Жанр: Приключения, Фантастика, Боевик
Продолжительность серии: 00:43
Перевод: Профессиональный (двухголосый, закадровый)
Субтитры: отсутствуют
Режиссер: Ричард Комптон, Джим Джонстон, Оскар Л. Косто
В ролях
Кливант Деррикс, Джерри О`Коннелл, Кари Вурер, Сабрина Ллойд, Джон Рис-Дэвис, Чарли О`Коннелл, Роберт Флойд, Лестер Барри, Уилл Сассо
Описание
Этот сериал поведает о парне-физике, который обучается на факультете физики. Его зовут Куин Мелори. Он интересуется всем тем, что хоть как-то связано с гравитацией. Изучает теории Энштейна-Роузена-Подальского, которые занимались вопросами гравитации. Куин старался и у него даже кое-что получилось, но это не было машиной гравитации, он создал машину-портал, которая открывала дверь в другие миры. И однажды Куин Мелори, его учитель Артуро, девушка Вейд, а также случайный гость Рембрандт Браун проверили машину на себе и очутились в параллельном мире, но им пришлось немедленно возвращаться, как раз-то в эту минуту и сломался у них таймер, который отвечал за координацию временного пространства. Путешественники по параллельным мирам не могут снова вернуться к себе в своё время, они не могут найти способа вернуться. Ну, а пока они перемещаются по мирам
Источник/Качество: SATRip
Формат: AVI
Видео кодек: DivX
Аудио кодек: MP3
Видео: 640x480 (1.33:1), 25 fps, DivX Codec 5.1.1 ~925 kbps avg, 0.12 bit/pixel
Аудио: 48 kHz, MPEG Layer 3, 2 ch, ~192.00 kbps avg
Общее
Полное имя : \Скользящие\Сезон 4\4x10,''Sliders - Asylum'' (SAT-Rip,Russian,1998).avi
Формат : AVI
Формат/Информация : Audio Video Interleave
Размер файла : 351 Мбайт
Продолжительность : 43 м.
Общий поток : 1131 Кбит/сек
Программа кодирования : Nandub v1.0rc2
Библиотека кодирования : Nandub build 1853/release
Видео
Идентификатор : 0
Формат : MPEG-4 Visual
Параметр BVOP формата : 1
Параметр QPel формата : Нет
Параметр GMC формата : 2 точки перехода
Параметр матрицы формата : Default (H.263)
Режим смешивания : Сжатый битовый поток
Идентификатор кодека : DX50
Идентификатор кодека/Подсказка : DivX 5
Продолжительность : 43 м.
Битрейт : 926 Кбит/сек
Ширина : 640 пикселей
Высота : 480 пикселей
Соотношение сторон : 4:3
Частота кадров : 25,000 кадров/сек
Цветовое пространство : YUV
Субдискретизация насыщенности : 4:2:0
Битовая глубина : 8 бит
Тип развёртки : Прогрессивная
Метод сжатия : С потерями
Бит/(Пиксели*Кадры) : 0.121
Размер потока : 287 Мбайт (82%)
Библиотека кодирования : DivX 5.1.1 (Maupiti) (UTC 2003-11-19)
Аудио
Идентификатор : 1
Формат : MPEG Audio
Версия формата : Version 1
Профиль формата : Layer 3
Идентификатор кодека : 55
Идентификатор кодека/Подсказка : MP3
Продолжительность : 43 м.
Вид битрейта : Постоянный
Битрейт : 192 Кбит/сек
Каналы : 2 канала
Частота : 48,0 КГц
Метод сжатия : С потерями
Размер потока : 59,5 Мбайт (17%)
Выравнивание : Соединение по промежуткам
Продолжительность промежутка : 24 мс. (0,60 видеокадр)
Время предзагрузки промежутка : 480 мс.
Библиотека кодирования : LAME3.96.1
Download / Скачать

Хотите скачать бесплатно? Зарегистрируйтесь на сайте (ссылка на регистрацию). Pirat.ca - самый быстрый торрент трекер в рунете!

Как скачивать  ·   Что такое торрент  ·   Рейтинг и ограничения

Пост 25-Фев-2012 18:26 (спустя 4 часа)

Топик был перенесен из форума Сериалы в форум Зарубежные сериалы

gEmOkPaT
 

CHARLI2236

1098

Пост 25-Июл-2013 18:25 (спустя 1 год 5 месяцев)

[Q] 

6

_________________
[Профиль]  [ЛС] 

max2008a

Лоцман

Пост 09-Апр-2015 21:36 (спустя 1 год 8 месяцев)

[Q] 

Скачавшие озвучка чья ? СТС или СайФай ?
[Профиль]  [ЛС] 
Показать сообщения:    
Ответить на тему

Текущее время: Сегодня 10:08

Часовой пояс: GMT + 4



Вы не можете начинать темы
Вы не можете отвечать на сообщения
Вы не можете редактировать свои сообщения
Вы не можете удалять свои сообщения
Вы не можете голосовать в опросах
Вы не можете прикреплять файлы к сообщениям
Вы не можете скачивать файлы

▼ Вниз