ML
     
  Уважаемый Гость!
Вы можете поддержать проект и зарегистрироваться у наших партнеров - онлайн-стратегия MyLands. При регистрации в игре Вы получите код, который сможете активировать после регистрации на pirat.ca и получить 1000 дублонов.

Ваш код:
2932e5898d0a27592397f70b82a5834d1e70ea19
 
     

Скользящие / Sliders (Сезон: 5 / Серии: 1-18 из 18и) (Ричард Комптон, Джим Джонстон, Оскар Л. Косто) [1999 г., Приключения, Фантастика, Боевик, SATRip] DVO

Ответить на тему
 
Автор
Сообщение

Пост 25-Фев-2012 15:06

[Q] 

petrovich400

Штурман

Скользящие / Sliders
(Сезон: 5 / Серии: 1-18)
Год выпуска: 1999
Производство: США
Жанр: Приключения, Фантастика, Боевик
Продолжительность серии: 00:43
Перевод: Профессиональный (двухголосый, закадровый)
Субтитры: отсутствуют
Режиссер: Ричард Комптон, Джим Джонстон, Оскар Л. Косто
В ролях
Кливант Деррикс, Джерри О`Коннелл, Кари Вурер, Сабрина Ллойд, Джон Рис-Дэвис, Чарли О`Коннелл, Роберт Флойд, Лестер Барри, Уилл Сассо
Описание
Это сериал фантастический. В нём говорится о Куине Мелори, парне который любит физику. Ему по душе раздел физики, относящийся к гравитации. Он ценит и изучает работы Энштейна-Роузена-Подальского, их теорию о гравитации. Он работал над проектом гравитационной машины, но в результате им была изобретена машина-портал, которая дала возможность оказываться в параллельных мирах. Испробовать эту машину Куин Мелори решил со своим учителем и профессором Артуро, девушкой Вейд (с ними случайно оказался и Рембрандт Браун, в портале он оказался чудом). Но попав в параллельный мир, они были вынуждены распрощаться с этим миром. А таймер, благодаря которому они ориентировались в пространстве, сломался. Теперь ребята остаются в вечном поиске своего дома. Веря в то, что однажды они снова будут находиться в своём мире.
Источник/Качество: SATRip
Формат: AVI
Видео кодек: DivX
Аудио кодек: MP3
Видео: 640x480 (1.33:1), 25 fps, DivX Codec 5.2.1 build 1328 ~997 kbps avg, 0.13 bit/pixel
Аудио: 48 kHz, MPEG Layer 3, 2 ch, ~128.00 kbps avg
Общее
Полное имя :\Скользящие\Сезон 5\ (SAT-Rip,Russian,1999).avi
Формат : AVI
Формат/Информация : Audio Video Interleave
Размер файла : 348 Мбайт
Продолжительность : 42 м.
Общий поток : 1136 Кбит/сек
Программа кодирования : VirtualDubMod 1.5.4.1 (build 2066/release)
Библиотека кодирования : VirtualDubMod build 2066/release
Видео
Идентификатор : 0
Формат : MPEG-4 Visual
Параметр BVOP формата : 1
Параметр QPel формата : Да
Параметр GMC формата : 2 точки перехода
Параметр матрицы формата : Default (H.263)
Режим смешивания : Сжатый битовый поток
Идентификатор кодека : DX50
Идентификатор кодека/Подсказка : DivX 5
Продолжительность : 42 м.
Битрейт : 998 Кбит/сек
Ширина : 640 пикселей
Высота : 480 пикселей
Соотношение сторон : 4:3
Частота кадров : 25,000 кадров/сек
Цветовое пространство : YUV
Субдискретизация насыщенности : 4:2:0
Битовая глубина : 8 бит
Тип развёртки : Прогрессивная
Метод сжатия : С потерями
Бит/(Пиксели*Кадры) : 0.130
Размер потока : 306 Мбайт (88%)
Библиотека кодирования : DivX 5.2.1 (WaffleDay) (UTC 2004-09-08)
Аудио
Идентификатор : 1
Формат : MPEG Audio
Версия формата : Version 1
Профиль формата : Layer 3
Режим : Joint stereo
Идентификатор кодека : 55
Идентификатор кодека/Подсказка : MP3
Продолжительность : 42 м.
Вид битрейта : Постоянный
Битрейт : 128 Кбит/сек
Каналы : 2 канала
Частота : 48,0 КГц
Метод сжатия : С потерями
Размер потока : 39,3 Мбайт (11%)
Выравнивание : Соединение по промежуткам
Продолжительность промежутка : 40 мс. (1,00 видеокадр)
Время предзагрузки промежутка : 504 мс.
Download / Скачать

Хотите скачать бесплатно? Зарегистрируйтесь на сайте (ссылка на регистрацию). Pirat.ca - самый быстрый торрент трекер в рунете!

Как скачивать  ·   Что такое торрент  ·   Рейтинг и ограничения

Пост 25-Фев-2012 18:27 (спустя 3 часа)

Топик был перенесен из форума Сериалы в форум Зарубежные сериалы

gEmOkPaT
 

CHARLI2236

1096

Пост 25-Июл-2013 18:25 (спустя 1 год 5 месяцев)

[Q] 

7

_________________
[Профиль]  [ЛС] 

kisu

Гроза морей

Пост 02-Ноя-2014 14:59 (спустя 1 год 3 месяца)

[Q] 

а кстати пятый сезон я вроде в те годы не смотрел!спасибо!!!
[Профиль]  [ЛС] 

max2008a

Лоцман

Пост 09-Апр-2015 21:39 (спустя 5 месяцев 7 дней)

[Q] 

Люди скачавшие скажите, а озвучка чья ? СТС или СайФай ?
[Профиль]  [ЛС] 
Показать сообщения:    
Ответить на тему

Текущее время: Сегодня 08:04

Часовой пояс: GMT + 4



Вы не можете начинать темы
Вы не можете отвечать на сообщения
Вы не можете редактировать свои сообщения
Вы не можете удалять свои сообщения
Вы не можете голосовать в опросах
Вы не можете прикреплять файлы к сообщениям
Вы не можете скачивать файлы

▼ Вниз