ML
     
  Уважаемый Гость!
Вы можете поддержать проект и зарегистрироваться у наших партнеров - онлайн-стратегия MyLands. При регистрации в игре Вы получите код, который сможете активировать после регистрации на pirat.ca и получить 1000 дублонов.

Ваш код:
0ea1bf889af42fca5f67d0a391efb3400850ad7c
 
     

Спартак: Кровь и песок / Spartacus: Blood and Sand (Сезон: 1 / Серии: 1-13 из 13и) (Майкл Херст, Рик Джейкобсон, Джесси Уарн / Michael Hurst, Rick Jacobson, Jesse Warn) [2010 г., боевик, драма, приключения, биография, история, HDTVRip] MVO (LostFilm)

Ответить на тему
 
Автор
Сообщение

Пост 03-Мар-2012 19:22

[Q] 

goxakrauter

-Спартак: Кровь и песок / Spartacus: Blood and Sand
(Сезон: 1 / Серии: 1-13)
-- Год выпуска: 2010
Мировая премьера: 22 января 2010
Российская премьера: 10 марта 2011
Производство: США
Жанр: боевик, драма, приключения, биография, история
Продолжительность серии: 00:54:00\Серия
Перевод: Профессиональный (многоголосый, закадровый) [LostFilm]--Режиссер: Майкл Херст, Рик Джейкобсон, Джесси Уарн / Michael Hurst, Rick Jacobson, Jesse Warn
В ролях
Энди Уитфилд (Спартак), Джон Ханна (Батиат), Люси Лоулесс (Лукреция), Антонио Те Майохо (Барка), Крэйг Паркер (Глабр), Эрин Каммингс (Сура), Ману Беннетт (Крикс), Ник Тарабей (Ашур), Питер Менса (Наставник), Вива Бьянка (Илития), Джей Кортни (Варрон), Мэтт Джилландерс (Марцелл), Лесли-Энн Брандт (Нэвия), Кайл Прайор (Марк)--Описание
Предан своей страной. Отдан в рабство. Перерожден воином. «Спартак: Кровь и песок» — это жесткий и выразительный рассказ о самом знаменитом из римских гладиаторов. Спартака разлучили с любовью всей его жизни и заставили выходить на арену, где смерть — лучшее развлечение для толпы. Спартак должен бороться за выживание, подружиться с врагами, и усвоить политику нового мира жестокости, секса и славы. Его будут соблазнять властью и изводить местью. Но его страсть даст ему силы преодолеть все испытания в этой истории о смерти, чести и стойкости.--Сэмпл , IMDB , КиноПоиск--Источник/Качество: HDTVRip
Формат: AVI
Видео кодек: XviD
Аудио кодек: MP3
Видео: 656x368 (1.78:1), 23.976 fps, XviD build 47 ~763 kbps avg, 0.13 bit/pixel
Аудио: 48 kHz, MPEG Layer 3, 2 ch, ~128.00 kbps avg--
General
Format : AVI
Format/Info : Audio Video Interleave
File size : 350 MiB
Duration : 54mn 15s
Overall bit rate : 901 Kbps
Writing application : VirtualDubMod 1.5.10.2 (build 2540/release)
Writing library : VirtualDubMod build 2540/release
Video
ID : 0
Format : MPEG-4 Visual
Format profile : Advanced [email protected]
Format settings, BVOP : 1
Format settings, QPel : No
Format settings, GMC : No warppoints
Format settings, Matrix : Default (MPEG)
Codec ID : XVID
Codec ID/Hint : XviD
Duration : 54mn 15s
Bit rate : 764 Kbps
Width : 656 pixels
Height : 368 pixels
Display aspect ratio : 16:9
Frame rate : 23.976 fps
Color space : YUV
Chroma subsampling : 4:2:0
Bit depth : 8 bits
Scan type : Progressive
Compression mode : Lossy
Bits/(Pixel*Frame) : 0.132
Stream size : 297 MiB (85%)
Writing library : XviD 1.2.0.dev47 (UTC 2006-11-01)
Audio
ID : 1
Format : MPEG Audio
Format version : Version 1
Format profile : Layer 3
Codec ID : 55
Codec ID/Hint : MP3
Duration : 54mn 15s
Bit rate mode : Constant
Bit rate : 128 Kbps
Channel(s) : 2 channels
Sampling rate : 48.0 KHz
Compression mode : Lossy
Stream size : 49.7 MiB (14%)
Alignment : Aligned on interleaves
Interleave, duration : 42 ms (1.00 video frame)
Interleave, preload duration : 504 ms
Writing library : LAME3.97
Encoding settings : -m s -V 4 -q 2 -lowpass 17 -b 128
Download / Скачать

Хотите скачать бесплатно? Зарегистрируйтесь на сайте (ссылка на регистрацию). Pirat.ca - самый быстрый торрент трекер в рунете!

Как скачивать  ·   Что такое торрент  ·   Рейтинг и ограничения

Пост 03-Мар-2012 20:05 (спустя 42 минуты)

Топик был перенесен из форума Сериалы в форум Зарубежные сериалы

gEmOkPaT
 

swlad

Лоцман

Пост 05-Мар-2012 14:05 (спустя 1 день 18 часов)

[Q] 

Реально все файлы до кучи занимают более 4,7 Гб. На DVD не влазит.
[Профиль]  [ЛС] 

goxakrauter ®

4540

Пост 05-Мар-2012 19:23 (спустя 5 часов)

[Q] 

swlad, они не могут занимать больше 4.44 гига.
[Профиль]  [ЛС] 

Ross.if

Шкипер

Пост 24-Мар-2012 16:01 (спустя 18 дней)

[Q] 

goxakrauter, спасибо за отличную сборку! Весит мало и качество отличное...Решил себе в колекцию записать, у меня был полный дубляж, но закадровый лостфильмовский перевод намного точнее и качественнее по-моему.
[Профиль]  [ЛС] 

ezoptron

Шкипер

418

Пост 28-Мар-2012 13:51 (спустя 3 дня)

[Q] 

Шикарный сериал,только 5
[Профиль]  [ЛС] 

CHARLI2236

1090

Пост 25-Июн-2012 17:58 (спустя 2 месяца 28 дней)

[Q] 

благодарю

_________________
[Профиль]  [ЛС] 

san89san86

Морской Волк

Пост 25-Дек-2012 10:33 (спустя 5 месяцев 29 дней)

[Q] 

где найти полнометражный фильм венчающий три сезона сериала и как собственно он называется?
[Профиль]  [ЛС] 

kest98

Корсар

Пост 16-Мар-2013 15:44 (спустя 2 месяца 22 дня)

[Q] 

[Профиль]  [ЛС] 

kest98

Корсар

Пост 16-Мар-2013 15:46 (спустя 1 минута)

[Q] 

[Профиль]  [ЛС] 

Zha-pol

Легенда

Пост 18-Май-2013 22:27 (спустя 2 месяца 2 дня)

[Q] 


_________________
[Профиль]  [ЛС] 

Maks_e

Корсар

69

Пост 10-Янв-2015 06:58 (спустя 1 год 7 месяцев)

[Q] 

будем смотреть Спасибо!!!
[Профиль]  [ЛС] 

gnezd77

Флибустьер

Пост 04-Апр-2015 00:08 (спустя 2 месяца 24 дня)

[Q] 

Спасибо!!! Лови бочку заценим....
[Профиль]  [ЛС] 

Clean_OK

Пост 06-Янв-2016 20:16 (спустя 9 месяцев 2 дня)

[Q] 

Спасибо!!!

_________________
[Профиль]  [ЛС] 
Показать сообщения:    
Ответить на тему

Текущее время: Сегодня 00:39

Часовой пояс: GMT + 4



Вы не можете начинать темы
Вы не можете отвечать на сообщения
Вы не можете редактировать свои сообщения
Вы не можете удалять свои сообщения
Вы не можете голосовать в опросах
Вы не можете прикреплять файлы к сообщениям
Вы не можете скачивать файлы

▼ Вниз