ML
     
  Уважаемый Гость!
Вы можете поддержать проект и зарегистрироваться у наших партнеров - онлайн-стратегия MyLands. При регистрации в игре Вы получите код, который сможете активировать после регистрации на pirat.ca и получить 1000 дублонов.

Ваш код:
6f9ab67d502902cc72a06c406977ddb589b7f39d
 
     

Космос: Далекие уголки.(Серии 01-23 из 23) (James Wong and Glen Morgan) [1995 г., Фантастика, приключение., DVDRip]

Ответить на тему
 
Автор
Сообщение

Пост 05-Ноя-2011 20:54

[Q] 

RIIDDIK

Шкипер

Космос: Далекие уголки. (Серии 01-23 из 23)
Год выпуска: 1995
Мировая премьера: 24 сентября 1995
Российская премьера: Space: Above and Beyond
Производство: США, FOX
Жанр: Фантастика, приключение.
Продолжительность: 23х45 мин.
Перевод: Профессиональный (многоголосый, закадровый)
Режиссер: James Wong and Glen Morgan
В ролях: Morgan Weisser, Kristen Cloke, Rodney Rowland, Lanei Chapman, Joel de la Fuente, James Morrison, Tucker Smallwood и др...
Описание: Инопланетяне нападают на Землю. Выпускники летной академии первыми принимают бой и несут тяжелые потери.
Оставшиеся в живых делают все, даже невозможное, чтобы защитить родную планету.
Отважная команда лучших земных пилотов под командованием полковника МакКвина выходит на тропу войны...
"Space: above and beyond" - это прежде всего "экшн". Но, как и во многих сериалах, в нем поднимаются вопросы о морали, о чувстве долга, дружбе и, возможно, непростом выборе. У героев сложные и порой драматичные судьбы. Их отношения складываются непросто.
Доп. информация: Английская дорожка присутствует отдельным файлом

Источник/Качество: DVDRip
Формат: AVI
Видео кодек: XviD
Аудио кодек: MPEG Audio
Видео: 640x480 (1.33:1), 23.976 fps, XviD build 47 ~976 kbps avg, 0.13 bit/pixel
Аудио: 48 kHz, MPEG Layer 3, 2 ch, ~128.00 kbps avg (Rus)
Аудио #2: 48 kHz, MPEG Layer 3, 2 ch, ~128.00 kbps avg (Eng)
General
Complete name : D:\ТОРЕНТNNN\Space Above and Beyond\Space.Above.And.Beyond.S01E01.Pilot.DVDRip.XviD-N-(Rus.Eng)\Space.Above.And.Beyond.S01E01.Pilot.DVDRip.XviD-N-(Rus).avi
Format : AVI
Format/Info : Audio Video Interleave
File size : 723 MiB
Duration : 1h 30mn
Overall bit rate : 1 114 Kbps
Writing application : VirtualDubMod 1.5.10.2 (build 2540/release)
Writing library : VirtualDubMod build 2540/release
Video
ID : 0
Format : MPEG-4 Visual
Format profile : Advanced [email protected]
Format settings, BVOP : 1
Format settings, QPel : No
Format settings, GMC : No warppoints
Format settings, Matrix : Default (H.263)
Codec ID : XVID
Codec ID/Hint : XviD
Duration : 1h 30mn
Bit rate : 977 Kbps
Width : 640 pixels
Height : 480 pixels
Display aspect ratio : 4:3
Frame rate : 23.976 fps
Color space : YUV
Chroma subsampling : 4:2:0
Bit depth : 8 bits
Scan type : Progressive
Compression mode : Lossy
Bits/(Pixel*Frame) : 0.133
Stream size : 634 MiB (88%)
Writing library : XviD 1.2.0.dev47 (UTC 2006-11-01)
Audio
ID : 1
Format : MPEG Audio
Format version : Version 1
Format profile : Layer 3
Codec ID : 55
Codec ID/Hint : MP3
Duration : 1h 30mn
Bit rate mode : Constant
Bit rate : 128 Kbps
Channel(s) : 2 channels
Sampling rate : 48.0 KHz
Compression mode : Lossy
Stream size : 83.1 MiB (11%)
Alignment : Aligned on interleaves
Interleave, duration : 42 ms (1.00 video frame)
Interleave, preload duration : 504 ms
Writing library : LAME3.97
Encoding settings : -m s -V 4 -q 2 -lowpass 17 -b 128
Download / Скачать

Хотите скачать бесплатно? Зарегистрируйтесь на сайте (ссылка на регистрацию). Pirat.ca - самый быстрый торрент трекер в рунете!

Как скачивать  ·   Что такое торрент  ·   Рейтинг и ограничения

denislobov

Лоцман

Пост 22-Ноя-2012 23:30 (спустя 1 год)

[Q] 

Очень давно искал данный сериал. Смотрел когда были кассеты. Рекомендую любителям космических баталий. Жаль что нельзя поставить 10 балов...
[Профиль]  [ЛС] 

blackmor2

Шкипер

Пост 06-Дек-2012 06:12 (спустя 13 дней)

[Q] 

1995 год bw О каких баталиях ты говоришь, сринов не видно
[Профиль]  [ЛС] 

SuperBeTeR

Морской Волк

Пост 27-Июн-2013 09:14 (спустя 6 месяцев 21 день)

[Q] 

2780981995 год bw О каких баталиях ты говоришь, сринов не видно

Пожалуйста, - баталии там стоящие, одни из самых лучших, которые я видел в фильмах про космос, а в плане динамки и постановки космических боев и дуэлей - самые лучшие, на мой взгляд. Вот только фильм темный какой-то получился, а так вообще, сериал получил много положительных (восторженных) отзывов. Кстати, активное участие в его создании принимал талантливый Д.Наттер, сериалы которого мы смотрели и смотрим - "Секретные материалы","Тысячелетие", "Игры престолов". Жаль, что они продолжение не сняли - закончился то он на драматичном моменте.
[Профиль]  [ЛС] 

Пират

Шкипер

Пост 12-Янв-2014 23:58 (спустя 6 месяцев 15 дней)

[Q] 

даже про такой не слышал
[Профиль]  [ЛС] 

revers

Лоцман

Пост 09-Фев-2014 19:04 (спустя 27 дней)

[Q] 

Большое спасибо.
[Профиль]  [ЛС] 
Показать сообщения:    
Ответить на тему

Текущее время: Сегодня 16:32

Часовой пояс: GMT + 4



Вы не можете начинать темы
Вы не можете отвечать на сообщения
Вы не можете редактировать свои сообщения
Вы не можете удалять свои сообщения
Вы не можете голосовать в опросах
Вы не можете прикреплять файлы к сообщениям
Вы не можете скачивать файлы

▼ Вниз