ML
     
  Уважаемый Гость!
Вы можете поддержать проект и зарегистрироваться у наших партнеров - онлайн-стратегия MyLands. При регистрации в игре Вы получите код, который сможете активировать после регистрации на pirat.ca и получить 1000 дублонов.

Ваш код:
db0e0ad91548759ffeb9bb88bed405e1a4b3c165
 
     

Белый Воротничок/White Collar (2-й сезон 1-16 серий из 16)[NewStudio] (Майкл Смит, Джон Т. Кречмер, Кевин Брэй) [2010-2011 г.] (Драма, Криминал, Детектив) [WEB-DL] (DVO)

Ответить на тему
 
Автор
Сообщение

Пост 10-Ноя-2011 20:45

[Q] 

Kristi555

Шкипер

Белый Воротничок/White Collar (2-й сезон 1-16 серий из 16)
Год выпуска: 2010
Мировая премьера: 13 июля 2010
Производство: США
Жанр: Драма, Криминал, Детектив
Продолжительность: ~ 48 мин
Перевод: Профессиональный (двухголосый)
Оригинальный аудиопоток: Английский
Автор(ы) перевода: NewStudio
Режиссер: Майкл Смит, Джон Т. Кречмер, Кевин Брэй
В ролях: Мэттью Бомер (Neal Caffrey), Тим ДиКей (Peter Burke), Тиффани Тиссен (Elizabeth), Вилли Гарсон (Mozzie), Александра Даддарио (Kate) и др.
Описание: Сериал рассказывает о сотрудничестве гениального мошенника и агента ФБР. Нил Кэффри, невероятно обаятельный преступный ум, наконец-то был пойман своим извечным врагом, отличным агентом государственной безопасности Питером Берком. Когда Нил бежит из тюрьмы, чтобы найти свою пропавшую любовь, Питер ловит его еще раз. Нил предлагает ему не торопиться с отправкой в тюрьму, и рассмотреть возможность сотрудничества. Ведь Нил мог бы помочь словить самых “элитных” преступников, “белых воротничков” преступного мира. Питер понимает, что интуиция и преступный опыт Нила, которых нет у законопослушного агента, могут стать хорошим подспорьем в борьбе с криминалом.
Источник/Качество: WEB-DL
Формат: AVI
Видео кодек: XviD
Аудио кодек: MP3
Видео: 624x352 (1.77:1), 23.976 fps, XviD MPEG-4 ~1191 kbps avg, 0.25 bit/pixel
Аудио: 48 kHz, MPEG Layer 3, 2 ch, ~128.00 kbps avg
Аудио #2: 48 kHz, MPEG Layer 3, 2 ch, ~127.87 kbps avg
Субтитры: нет
1.Withdrawal.
2.Need to Know.
3.Copycat Caffrey.
4.By the Book.
5.Unfinished Business.
6.In the red.
7.Prisoner’s Dilemma.
8.Company Man.
9.Point Blank.
10.Burke’s Seven.
11.Forging Bonds.
12What Happens in Burma.
13.Countermeasures.
14.Payback.
15.Power Play.
16.Under the Radar.
General
Format : AVI
Format/Info : Audio Video Interleave
File size : 400 MiB
Duration : 43mn 12s
Overall bit rate : 1 293 Kbps
Writing application : VirtualDubMod 1.5.10.2 (build 2540/release)
Writing library : VirtualDubMod build 2540/release
Video
ID : 0
Format : MPEG-4 Visual
Format profile : Advanced [email protected]
Format settings, BVOP : 2
Format settings, QPel : Yes
Format settings, GMC : No warppoints
Format settings, Matrix : Default (MPEG)
Muxing mode : Packed bitstream
Codec ID : XVID
Codec ID/Hint : XviD
Duration : 43mn 12s
Bit rate : 1 017 Kbps
Width : 624 pixels
Height : 352 pixels
Display aspect ratio : 16:9
Frame rate : 23.976 fps
Color space : YUV
Chroma subsampling : 4:2:0
Bit depth : 8 bits
Scan type : Progressive
Compression mode : Lossy
Bits/(Pixel*Frame) : 0.193
Stream size : 314 MiB (79%)
Writing library : XviD 1.2.1 (UTC 2008-12-04)
Audio #1
ID : 1
Format : MPEG Audio
Format version : Version 1
Format profile : Layer 3
Mode : Joint stereo
Mode extension : MS Stereo
Codec ID : 55
Codec ID/Hint : MP3
Duration : 43mn 12s
Bit rate mode : Constant
Bit rate : 128 Kbps
Channel(s) : 2 channels
Sampling rate : 48.0 KHz
Compression mode : Lossy
Stream size : 39.6 MiB (10%)
Alignment : Aligned on interleaves
Interleave, duration : 42 ms (1.00 video frame)
Interleave, preload duration : 504 ms
Audio #2
ID : 2
Format : MPEG Audio
Format version : Version 1
Format profile : Layer 3
Mode : Joint stereo
Mode extension : MS Stereo
Codec ID : 55
Codec ID/Hint : MP3
Duration : 43mn 12s
Bit rate mode : Variable
Bit rate : 128 Kbps
Channel(s) : 2 channels
Sampling rate : 48.0 KHz
Compression mode : Lossy
Stream size : 40.3 MiB (10%)
Alignment : Aligned on interleaves
Interleave, duration : 24 ms (0.58 video frame)
Interleave, preload duration : 141 ms
Writing library : LAME3.90.
Encoding settings : -m j -V 4 -q 2 -lowpass 17.6 --abr 128


Download / Скачать

Хотите скачать бесплатно? Зарегистрируйтесь на сайте (ссылка на регистрацию). Pirat.ca - самый быстрый торрент трекер в рунете!

Как скачивать  ·   Что такое торрент  ·   Рейтинг и ограничения

Пост 11-Ноя-2011 16:25 (спустя 19 часов)

Топик был перенесен из форума Сериалы в форум Зарубежные сериалы

gEmOkPaT
 

POP9997

Лоцман

Пост 03-Янв-2012 11:14 (спустя 1 месяц 22 дня)

[Q] 

есть кто на раздачи??
[Профиль]  [ЛС] 

oper73

Морской Волк

Пост 14-Июн-2012 13:57 (спустя 5 месяцев 11 дней)

[Q] 

встаньте кто нить на раздачу плз ak
[Профиль]  [ЛС] 

CHARLI2236

1098

Пост 25-Июл-2013 18:17 (спустя 1 год 1 месяц)

[Q] 

5

_________________
[Профиль]  [ЛС] 

minage

Морской Волк

33

Пост 11-Мар-2015 14:27 (спустя 1 год 7 месяцев)

[Q] 

Интересный сериал.
Благодарю.
[Профиль]  [ЛС] 

янка-сан

Гроза морей

Пост 18-Дек-2015 20:31 (спустя 9 месяцев 7 дней)

[Q] 

до сериала была такая же идея у фильма с ДиКаприо. хороший сериал Лови бочку
[Профиль]  [ЛС] 
Показать сообщения:    
Ответить на тему

Текущее время: Сегодня 08:09

Часовой пояс: GMT + 4



Вы не можете начинать темы
Вы не можете отвечать на сообщения
Вы не можете редактировать свои сообщения
Вы не можете удалять свои сообщения
Вы не можете голосовать в опросах
Вы не можете прикреплять файлы к сообщениям
Вы не можете скачивать файлы

▼ Вниз