ML
     
  Уважаемый Гость!
Вы можете поддержать проект и зарегистрироваться у наших партнеров - онлайн-стратегия MyLands. При регистрации в игре Вы получите код, который сможете активировать после регистрации на pirat.ca и получить 1000 дублонов.

Ваш код:
11f49771fdf057c9d51610e4a0925c3b46ddb655
 
     

Сверхъестественное 7 Сезон / Supernatural 7 Season (Серии: 23 из 23)[Студия "Кравец" (LostFilm)](Филип Сгриккиа, Джеймс Л. Конуэй, Питер Эллис) [2011] (Драма / Фантастика / Ужасы / Мистика / Триллер) [WEB-DLRip](MVO)

Страницы :  1, 2  След.

Ответить на тему
 
Автор
Сообщение

Пост 16-Ноя-2011 15:26

[Q] 

Porutchik

Шкипер

Сверхъестественное 7 Сезон / Supernatural 7 Season (23 из 23) Год выпуска: 2011-2012
Производство: США
Жанр: Драма / Фантастика / Ужасы / Мистика / Триллер
Длина серии: ~ 42 минуты
Перевод: Профессиональный (многоголосый, закадровый)
Оригинальный аудиопоток: Английский
Режиссеры: Филип Сгриккиа, Гай Норман Би, Питер Эллис, Дэвид Наттер, Эрик Крипке, Роберт Сингер, Ким Мэннерс, Чарльз Бисон, Стив Бойум, Майк Рол, Дж. Миллер Тобин, Джеймс Л. Конуэй, Джон Шоуолтер
В ролях: Джаред Падалеки, Дженсен Эклс, Джим Бивер, Миша Коллинз, Джеффри Дин Морган, Женевьев Падалеки, Синди Сэмпсон, Саманта Феррис, Марк Шеппард, Курт Фуллер
Описание: Два брата Дин и Сэм Винчестеры путешествуют по стране в поисках своего пропавшего отца, встречая на своём пути разную нечисть и сражаясь с ней. Когда братья были совсем маленькими, их мать погибла при ужасных и необъяснимых обстоятельствах. С тех пор отец Дина и Сэма посвящаяет себя поискам той нечисти по вине которой погибла его любимая жена. Сыновья становятся ему помощниками. Повзрослев Сэм решает отдалиться от постоянной борьбы со сверъестественным и начать нормальную жизнь, поступить в университет. Но в его жизнь врывается брат Дин, который сообщает, что отец пропал и от него нет вестей уже несколько дней. Сэм решает согласиться на небольшое путешествие, но только на пару дней. Вот только пар дней для этого дела окажется мало... Им не суждено жить нормальной жизнью. Их жизнь это борьба с нечистой силой. Они должны отыскать своего отца и узнать тайну гибели их матери.
  В седьмом сезоне Винчестеры окажутся в еще более зловещей ситуации, им будет противостоять противник, не похожий ни на кого из тех, с кем им доводилось иметь дело прежде. Всё их оружие, их охотничьи уловки и их укрытия окажутся бесполезными. У них не останется ничего, кроме друг друга.
-Перевод: Fargate
Озвучка: Студия "Кравец" (LostFilm)
Качество: WEB-DLRip
Формат: AVI
Видео кодек: XviD
Аудио кодек: MP3
Видео: XVID 720x400 23.976fps 1165Kbps
Аудио 1 RUS: MPEG Audio Layer 3 48000Hz stereo 192Kbps
Аудио 2 ENG: MPEG Audio Layer 3 48000Hz stereo 192Kbps
Субтитры: русские-
  Кастиэль не убивает Сэма, Дина и Бобби, но предупреждает их, чтобы они не лезли в его дела. Исходя из своего нового божественного положения, Кастиэль начинает наводить порядок в этом мире. Дин решает, что они должны поймать Смерть и заставить его остановить Кастиэля, но бывший ангел - на шаг впереди их, и он оставляет Дина один на один с очень разозленным Смертью. Тем временем Сэм изо всех сил пытается справится с рухнувшей стеной у себя в голове.
General
Format : AVI
Format/Info : Audio Video Interleave
File size : 477 MiB
Duration : 42mn 42s
Overall bit rate : 1 561 Kbps
Writing application : VirtualDubMod 1.5.10.1 (build 2366/release)
Writing library : VirtualDubMod build 2366/release
Video #0
ID : 0
Format : MPEG-4 Visual
Format profile : [email protected]
Format settings, BVOP : No
Format settings, QPel : No
Format settings, GMC : No warppoints
Format settings, Matrix : Default (H.263)
Codec ID : XVID
Codec ID/Hint : XviD
Duration : 42mn 42s
Bit rate : 1 165 Kbps
Width : 720 pixels
Height : 400 pixels
Display aspect ratio : 16:9
Frame rate : 23.976 fps
Color space : YUV
Chroma subsampling : 4:2:0
Bit depth : 8 bits
Scan type : Progressive
Compression mode : Lossy
Bits/(Pixel*Frame) : 0.169
Stream size : 356 MiB (75%)
Writing library : XviD 1.2.1 (UTC 2008-12-04)
Audio #1
ID : 1
Format : MPEG Audio
Format version : Version 1
Format profile : Layer 3
Mode : Joint stereo
Mode extension : MS Stereo
Codec ID : 55
Codec ID/Hint : MP3
Duration : 42mn 42s
Bit rate mode : Constant
Bit rate : 192 Kbps
Channel(s) : 2 channels
Sampling rate : 48.0 KHz
Compression mode : Lossy
Stream size : 58.7 MiB (12%)
Alignment : Aligned on interleaves
Interleave, duration : 42 ms (1.00 video frame)
Interleave, preload duration : 504 ms
Writing library : LAME3.90.3
Audio #2
ID : 2
Format : MPEG Audio
Format version : Version 1
Format profile : Layer 3
Mode : Joint stereo
Codec ID : 55
Codec ID/Hint : MP3
Duration : 42mn 42s
Bit rate mode : Variable
Bit rate : 192 Kbps
Channel(s) : 2 channels
Sampling rate : 48.0 KHz
Compression mode : Lossy
Stream size : 56.8 MiB (12%)
Alignment : Aligned on interleaves
Interleave, duration : 24 ms (0.58 video frame)
Interleave, preload duration : 532 ms
Writing library : LAME3.97b
Encoding settings : -m j -V 4 -q 3 -lowpass 18.6 --abr 192
  Кастиэль продолжает нести бремя своей свежеобретенной власти. Рухнувшая стена в голове Сэма становится причиной галлюцинаций, и он уже не может отличить явь от видений. Бобби опасается, что Дин не сможет одновременно и противостоять Кастиэлю, и присматривать за Сэмом.
General
Format : AVI
Format/Info : Audio Video Interleave
File size : 568 MiB
Duration : 42mn 32s
Overall bit rate : 1 869 Kbps
Writing application : VirtualDubMod 1.5.10.1 (build 2366/release)
Writing library : VirtualDubMod build 2366/release
Video #0
ID : 0
Format : MPEG-4 Visual
Format profile : [email protected]
Format settings, BVOP : No
Format settings, QPel : No
Format settings, GMC : No warppoints
Format settings, Matrix : Default (H.263)
Codec ID : XVID
Codec ID/Hint : XviD
Duration : 42mn 32s
Bit rate : 1 474 Kbps
Width : 720 pixels
Height : 400 pixels
Display aspect ratio : 16:9
Frame rate : 23.976 fps
Color space : YUV
Chroma subsampling : 4:2:0
Bit depth : 8 bits
Scan type : Progressive
Compression mode : Lossy
Bits/(Pixel*Frame) : 0.213
Stream size : 448 MiB (79%)
Writing library : XviD 1.2.1 (UTC 2008-12-04)
Audio #1
ID : 1
Format : MPEG Audio
Format version : Version 1
Format profile : Layer 3
Mode : Joint stereo
Mode extension : MS Stereo
Codec ID : 55
Codec ID/Hint : MP3
Duration : 42mn 32s
Bit rate mode : Variable
Bit rate : 192 Kbps
Channel(s) : 2 channels
Sampling rate : 48.0 KHz
Compression mode : Lossy
Stream size : 57.2 MiB (10%)
Alignment : Aligned on interleaves
Interleave, duration : 24 ms (0.58 video frame)
Interleave, preload duration : 498 ms
Writing library : LAME3.97b
Encoding settings : -m j -V 4 -q 3 -lowpass 18.6 --abr 192
Audio #2
ID : 2
Format : MPEG Audio
Format version : Version 1
Format profile : Layer 3
Mode : Joint stereo
Mode extension : MS Stereo
Codec ID : 55
Codec ID/Hint : MP3
Duration : 42mn 31s
Bit rate mode : Variable
Bit rate : 192 Kbps
Channel(s) : 2 channels
Sampling rate : 48.0 KHz
Compression mode : Lossy
Stream size : 56.6 MiB (10%)
Alignment : Aligned on interleaves
Interleave, duration : 24 ms (0.58 video frame)
Interleave, preload duration : 528 ms
Writing library : LAME3.97b
Encoding settings : -m j -V 4 -q 3 -lowpass 18.6 --abr 192
  Дин приходит в ярость, когда Сэм исчезает, в одиночку начав расследование дела, очень похожего на другое, которое он расследовал, когда был подростком. Демон оказывается Эми. Она убивает всяких бандитов и отморозков, чтобы сожрать их мозг - этого же самого демона Сэм преследовал в детстве.
General
Format : AVI
Format/Info : Audio Video Interleave
File size : 592 MiB
Duration : 41mn 54s
Overall bit rate : 1 976 Kbps
Writing application : VirtualDubMod 1.5.10.1 (build 2366/release)
Writing library : VirtualDubMod build 2366/release
Video #0
ID : 0
Format : MPEG-4 Visual
Format profile : [email protected]
Format settings, BVOP : No
Format settings, QPel : No
Format settings, GMC : No warppoints
Format settings, Matrix : Default (H.263)
Codec ID : XVID
Codec ID/Hint : XviD
Duration : 41mn 54s
Bit rate : 1 574 Kbps
Width : 720 pixels
Height : 400 pixels
Display aspect ratio : 16:9
Frame rate : 23.976 fps
Color space : YUV
Chroma subsampling : 4:2:0
Bit depth : 8 bits
Scan type : Progressive
Compression mode : Lossy
Bits/(Pixel*Frame) : 0.228
Stream size : 472 MiB (80%)
Writing library : XviD 1.2.1 (UTC 2008-12-04)
Audio #1
ID : 1
Format : MPEG Audio
Format version : Version 1
Format profile : Layer 3
Mode : Joint stereo
Mode extension : MS Stereo
Codec ID : 55
Codec ID/Hint : MP3
Duration : 41mn 54s
Bit rate mode : Constant
Bit rate : 192 Kbps
Channel(s) : 2 channels
Sampling rate : 48.0 KHz
Compression mode : Lossy
Stream size : 57.6 MiB (10%)
Alignment : Aligned on interleaves
Interleave, duration : 42 ms (1.00 video frame)
Interleave, preload duration : 504 ms
Audio #2
ID : 2
Format : MPEG Audio
Format version : Version 1
Format profile : Layer 3
Codec ID : 55
Codec ID/Hint : MP3
Duration : 41mn 54s
Bit rate mode : Constant
Bit rate : 192 Kbps
Channel(s) : 2 channels
Sampling rate : 48.0 KHz
Compression mode : Lossy
Delay relative to video : 12ms
Stream size : 57.6 MiB (10%)
Alignment : Aligned on interleaves
Interleave, duration : 24 ms (0.58 video frame)
Interleave, preload duration : 528 ms
  Сэм и Дин расследуют череду ужасных убийств и обнаруживают, что во всех смертях виноват египетский бог Осирис. Мстительный бог судит людей за их ошибки и приговаривает к смерти, если признает их виновными. Он обвиняет Дина и решает, что тот должен предстать перед его судом. Сэм выступает в роли адвоката Дина, но братья оказываются застигнутыми врасплох, когда Осирис вызывает неожиданного свидетеля - Джо.
General
Format : AVI
Format/Info : Audio Video Interleave
File size : 501 MiB
Duration : 42mn 39s
Overall bit rate : 1 643 Kbps
Writing application : VirtualDubMod 1.5.10.1 (build 2366/release)
Writing library : VirtualDubMod build 2366/release
Video #0
ID : 0
Format : MPEG-4 Visual
Format profile : [email protected]
Format settings, BVOP : No
Format settings, QPel : No
Format settings, GMC : No warppoints
Format settings, Matrix : Default (H.263)
Codec ID : XVID
Codec ID/Hint : XviD
Duration : 42mn 39s
Bit rate : 1 242 Kbps
Width : 720 pixels
Height : 400 pixels
Display aspect ratio : 16:9
Frame rate : 23.976 fps
Color space : YUV
Chroma subsampling : 4:2:0
Bit depth : 8 bits
Scan type : Progressive
Compression mode : Lossy
Bits/(Pixel*Frame) : 0.180
Stream size : 379 MiB (76%)
Writing library : XviD 1.2.1 (UTC 2008-12-04)
Audio #1
ID : 1
Format : MPEG Audio
Format version : Version 1
Format profile : Layer 3
Mode : Joint stereo
Mode extension : MS Stereo
Codec ID : 55
Codec ID/Hint : MP3
Duration : 42mn 39s
Bit rate mode : Constant
Bit rate : 192 Kbps
Channel(s) : 2 channels
Sampling rate : 48.0 KHz
Compression mode : Lossy
Stream size : 58.6 MiB (12%)
Alignment : Aligned on interleaves
Interleave, duration : 42 ms (1.00 video frame)
Interleave, preload duration : 504 ms
Audio #2
ID : 2
Format : MPEG Audio
Format version : Version 1
Format profile : Layer 3
Codec ID : 55
Codec ID/Hint : MP3
Duration : 42mn 39s
Bit rate mode : Constant
Bit rate : 192 Kbps
Channel(s) : 2 channels
Sampling rate : 48.0 KHz
Compression mode : Lossy
Delay relative to video : 12ms
Stream size : 58.6 MiB (12%)
Alignment : Aligned on interleaves
Interleave, duration : 24 ms (0.58 video frame)
Interleave, preload duration : 528 ms
  Сэм и Дин встречают Мэгги Старк, ведьму, обрушившую свой гнев на маленький городок, что привело к многочисленным жертвам. Братья разыскивают ее мужа, Дональда, чтобы узнать, может ли он помочь. Дональд говорит, что Мэгги злится на него из-за его любовной интрижки и теперь от её злости страдают все горожане.
General
Format : AVI
Format/Info : Audio Video Interleave
File size : 572 MiB
Duration : 41mn 47s
Overall bit rate : 1 915 Kbps
Writing application : VirtualDubMod 1.5.10.1 (build 2366/release)
Writing library : VirtualDubMod build 2366/release
Video #0
ID : 0
Format : MPEG-4 Visual
Format profile : [email protected]
Format settings, BVOP : No
Format settings, QPel : No
Format settings, GMC : No warppoints
Format settings, Matrix : Default (H.263)
Codec ID : XVID
Codec ID/Hint : XviD
Duration : 41mn 47s
Bit rate : 1 514 Kbps
Width : 720 pixels
Height : 400 pixels
Display aspect ratio : 16:9
Frame rate : 23.976 fps
Color space : YUV
Chroma subsampling : 4:2:0
Bit depth : 8 bits
Scan type : Progressive
Compression mode : Lossy
Bits/(Pixel*Frame) : 0.219
Stream size : 452 MiB (79%)
Writing library : XviD 1.2.1 (UTC 2008-12-04)
Audio #1
ID : 1
Format : MPEG Audio
Format version : Version 1
Format profile : Layer 3
Mode : Joint stereo
Mode extension : MS Stereo
Codec ID : 55
Codec ID/Hint : MP3
Duration : 41mn 47s
Bit rate mode : Constant
Bit rate : 192 Kbps
Channel(s) : 2 channels
Sampling rate : 48.0 KHz
Compression mode : Lossy
Stream size : 57.4 MiB (10%)
Alignment : Aligned on interleaves
Interleave, duration : 42 ms (1.00 video frame)
Interleave, preload duration : 504 ms
Audio #2
ID : 2
Format : MPEG Audio
Format version : Version 1
Format profile : Layer 3
Codec ID : 55
Codec ID/Hint : MP3
Duration : 41mn 47s
Bit rate mode : Constant
Bit rate : 192 Kbps
Channel(s) : 2 channels
Sampling rate : 48.0 KHz
Compression mode : Lossy
Delay relative to video : 12ms
Stream size : 57.4 MiB (10%)
Alignment : Aligned on interleaves
Interleave, duration : 24 ms (0.58 video frame)
Interleave, preload duration : 528 ms
  ФБР снова объявляет в розыск Сэма и Дина Винчестеров из-за того, что два левиафана клонировали братьев и начали убивать направо и налево. Объектам национального розыска, настоящим Сэму и Дину, приходится скрываться, поэтому Бобби отправляет их за помощью к Фрэнку Деверо - чудаковатому эксперту по слежке. Сам Бобби в это время продолжает искать способ убить левиафанов или, по крайней мере, причинить им хоть какой-то вред, чтобы настоящие Винчестеры смогли остановить своих злодейских двойников.
General
Format : AVI
Format/Info : Audio Video Interleave
File size : 555 MiB
Duration : 42mn 33s
Overall bit rate : 1 823 Kbps
Writing application : VirtualDubMod 1.5.10.1 (build 2366/release)
Writing library : VirtualDubMod build 2366/release
Video #0
ID : 0
Format : MPEG-4 Visual
Format profile : [email protected]
Format settings, BVOP : No
Format settings, QPel : No
Format settings, GMC : No warppoints
Format settings, Matrix : Default (H.263)
Codec ID : XVID
Codec ID/Hint : XviD
Duration : 42mn 33s
Bit rate : 1 422 Kbps
Width : 720 pixels
Height : 400 pixels
Display aspect ratio : 16:9
Frame rate : 23.976 fps
Color space : YUV
Chroma subsampling : 4:2:0
Bit depth : 8 bits
Scan type : Progressive
Compression mode : Lossy
Bits/(Pixel*Frame) : 0.206
Stream size : 433 MiB (78%)
Writing library : XviD 1.2.1 (UTC 2008-12-04)
Audio #1
ID : 1
Format : MPEG Audio
Format version : Version 1
Format profile : Layer 3
Mode : Joint stereo
Codec ID : 55
Codec ID/Hint : MP3
Duration : 42mn 33s
Bit rate mode : Constant
Bit rate : 192 Kbps
Channel(s) : 2 channels
Sampling rate : 48.0 KHz
Compression mode : Lossy
Stream size : 58.4 MiB (11%)
Alignment : Aligned on interleaves
Interleave, duration : 42 ms (1.00 video frame)
Interleave, preload duration : 504 ms
Audio #2
ID : 2
Format : MPEG Audio
Format version : Version 1
Format profile : Layer 3
Codec ID : 55
Codec ID/Hint : MP3
Duration : 42mn 33s
Bit rate mode : Constant
Bit rate : 192 Kbps
Channel(s) : 2 channels
Sampling rate : 48.0 KHz
Compression mode : Lossy
Delay relative to video : 12ms
Stream size : 58.4 MiB (11%)
Alignment : Aligned on interleaves
Interleave, duration : 24 ms (0.58 video frame)
Interleave, preload duration : 528 ms
  Сэм и Дин расследуют жестокие убийства местных экстрасенсов в городке Лили Дейл, самого богатого на медиумов города Америки. Они узнают, что злобный призрак убивает ясновидящих одного за другим, но в городе, полном людей, которые заявляют, что способны вызывать призраков, нелегко вычислить настоящего «повелителя духов».
General
Format : AVI
Format/Info : Audio Video Interleave
File size : 608 MiB
Duration : 42mn 36s
Overall bit rate : 1 995 Kbps
Writing application : VirtualDubMod 1.5.10.1 (build 2366/release)
Writing library : VirtualDubMod build 2366/release
Video #0
ID : 0
Format : MPEG-4 Visual
Format profile : [email protected]
Format settings, BVOP : No
Format settings, QPel : No
Format settings, GMC : No warppoints
Format settings, Matrix : Default (H.263)
Codec ID : XVID
Codec ID/Hint : XviD
Duration : 42mn 36s
Bit rate : 1 597 Kbps
Width : 720 pixels
Height : 400 pixels
Display aspect ratio : 16:9
Frame rate : 23.976 fps
Color space : YUV
Chroma subsampling : 4:2:0
Bit depth : 8 bits
Scan type : Progressive
Compression mode : Lossy
Bits/(Pixel*Frame) : 0.231
Stream size : 487 MiB (80%)
Writing library : XviD 1.2.1 (UTC 2008-12-04)
Audio #1
ID : 1
Format : MPEG Audio
Format version : Version 1
Format profile : Layer 3
Mode : Joint stereo
Mode extension : MS Stereo
Codec ID : 55
Codec ID/Hint : MP3
Duration : 42mn 33s
Bit rate mode : Constant
Bit rate : 192 Kbps
Channel(s) : 2 channels
Sampling rate : 48.0 KHz
Compression mode : Lossy
Stream size : 58.5 MiB (10%)
Alignment : Aligned on interleaves
Interleave, duration : 42 ms (1.00 video frame)
Interleave, preload duration : 504 ms
Audio #2
ID : 2
Format : MPEG Audio
Format version : Version 1
Format profile : Layer 3
Codec ID : 55
Codec ID/Hint : MP3
Duration : 42mn 36s
Bit rate mode : Constant
Bit rate : 192 Kbps
Channel(s) : 2 channels
Sampling rate : 48.0 KHz
Compression mode : Lossy
Delay relative to video : 24ms
Stream size : 58.5 MiB (10%)
Alignment : Aligned on interleaves
Interleave, duration : 42 ms (1.00 video frame)
Interleave, preload duration : 504 ms
  На очередной охоте Сэм и Дин натыкаются на одного старого знакомого, и тут вспоминаются прежние счёты. Пока суть да дело, Дин, неожиданно для себя попадает в такую ситуацию, что ему поневоле приходится скооперироваться с чудаковатым, но неплохим охотником Гартом.
General
Format : AVI
Format/Info : Audio Video Interleave
File size : 576 MiB
Duration : 42mn 42s
Overall bit rate : 1 886 Kbps
Writing application : VirtualDubMod 1.5.10.1 (build 2366/release)
Writing library : VirtualDubMod build 2366/release
Video #0
ID : 0
Format : MPEG-4 Visual
Format profile : [email protected]
Format settings, BVOP : No
Format settings, QPel : No
Format settings, GMC : No warppoints
Format settings, Matrix : Default (H.263)
Codec ID : XVID
Codec ID/Hint : XviD
Duration : 42mn 42s
Bit rate : 1 489 Kbps
Width : 720 pixels
Height : 400 pixels
Display aspect ratio : 16:9
Frame rate : 23.976 fps
Color space : YUV
Chroma subsampling : 4:2:0
Bit depth : 8 bits
Scan type : Progressive
Compression mode : Lossy
Bits/(Pixel*Frame) : 0.216
Stream size : 455 MiB (79%)
Writing library : XviD 1.2.1 (UTC 2008-12-04)
Audio #1
ID : 1
Format : MPEG Audio
Format version : Version 1
Format profile : Layer 3
Mode : Joint stereo
Mode extension : MS Stereo
Codec ID : 55
Codec ID/Hint : MP3
Duration : 42mn 42s
Bit rate mode : Constant
Bit rate : 192 Kbps
Channel(s) : 2 channels
Sampling rate : 48.0 KHz
Compression mode : Lossy
Stream size : 58.7 MiB (10%)
Alignment : Aligned on interleaves
Interleave, duration : 42 ms (1.00 video frame)
Interleave, preload duration : 504 ms
Writing library : LAME3.97 (beta)
Audio #2
ID : 2
Format : MPEG Audio
Format version : Version 1
Format profile : Layer 3
Codec ID : 55
Codec ID/Hint : MP3
Duration : 42mn 42s
Bit rate mode : Constant
Bit rate : 192 Kbps
Channel(s) : 2 channels
Sampling rate : 48.0 KHz
Compression mode : Lossy
Delay relative to video : 24ms
Stream size : 58.7 MiB (10%)
Alignment : Aligned on interleaves
Interleave, duration : 42 ms (1.00 video frame)
Interleave, preload duration : 504 ms
  Сэм, Дин и Бобби становятся охотниками в прямом смысле слова и, чтобы выследить существо, нападающее на людей в лесу, разбивают лагерь в парке Нью Джерси. Жители города утверждают, что это настоящий Дьявол из Джерси. Тем временем, Дин с удовольствием обнаруживает в городе ресторан Биггерсона, но его ждёт разочарование, когда оказывается, что съев фирменный сэндвич, люди сходят с ума.
General
Format : AVI
Format/Info : Audio Video Interleave
File size : 535 MiB
Duration : 40mn 41s
Overall bit rate : 1 838 Kbps
Writing application : VirtualDubMod 1.5.10.1 (build 2366/release)
Writing library : VirtualDubMod build 2366/release
Video #0
ID : 0
Format : MPEG-4 Visual
Format profile : [email protected]
Format settings, BVOP : No
Format settings, QPel : No
Format settings, GMC : No warppoints
Format settings, Matrix : Default (H.263)
Codec ID : XVID
Codec ID/Hint : XviD
Duration : 40mn 41s
Bit rate : 1 440 Kbps
Width : 720 pixels
Height : 400 pixels
Display aspect ratio : 16:9
Frame rate : 23.976 fps
Color space : YUV
Chroma subsampling : 4:2:0
Bit depth : 8 bits
Scan type : Progressive
Compression mode : Lossy
Bits/(Pixel*Frame) : 0.209
Stream size : 419 MiB (78%)
Writing library : XviD 1.2.1 (UTC 2008-12-04)
Audio #1
ID : 1
Format : MPEG Audio
Format version : Version 1
Format profile : Layer 3
Mode : Joint stereo
Mode extension : MS Stereo
Codec ID : 55
Codec ID/Hint : MP3
Duration : 40mn 41s
Bit rate mode : Constant
Bit rate : 192 Kbps
Channel(s) : 2 channels
Sampling rate : 48.0 KHz
Compression mode : Lossy
Stream size : 55.9 MiB (10%)
Alignment : Aligned on interleaves
Interleave, duration : 42 ms (1.00 video frame)
Interleave, preload duration : 504 ms
Audio #2
ID : 2
Format : MPEG Audio
Format version : Version 1
Format profile : Layer 3
Codec ID : 55
Codec ID/Hint : MP3
Duration : 40mn 40s
Bit rate mode : Constant
Bit rate : 192 Kbps
Channel(s) : 2 channels
Sampling rate : 48.0 KHz
Compression mode : Lossy
Delay relative to video : 24ms
Stream size : 55.9 MiB (10%)
Alignment : Aligned on interleaves
Interleave, duration : 42 ms (1.00 video frame)
Interleave, preload duration : 504 ms
  Пока Сэм и Дин пытаются обогнать время, выполняя миссию, ставки в которой высоки, Бобби ищет помощи у старинного друга, чтобы разрешить одну чрезвычайно личную проблему.
General
Format : AVI
Format/Info : Audio Video Interleave
File size : 525 MiB
Duration : 41mn 57s
Overall bit rate : 1 749 Kbps
Writing application : VirtualDubMod 1.5.10.1 (build 2366/release)
Writing library : VirtualDubMod build 2366/release
Video #0
ID : 0
Format : MPEG-4 Visual
Format profile : [email protected]
Format settings, BVOP : No
Format settings, QPel : No
Format settings, GMC : No warppoints
Format settings, Matrix : Default (H.263)
Codec ID : XVID
Codec ID/Hint : XviD
Duration : 41mn 57s
Bit rate : 1 351 Kbps
Width : 720 pixels
Height : 400 pixels
Display aspect ratio : 16:9
Frame rate : 23.976 fps
Color space : YUV
Chroma subsampling : 4:2:0
Bit depth : 8 bits
Scan type : Progressive
Compression mode : Lossy
Bits/(Pixel*Frame) : 0.196
Stream size : 405 MiB (77%)
Writing library : XviD 1.2.1 (UTC 2008-12-04)
Audio #1
ID : 1
Format : MPEG Audio
Format version : Version 1
Format profile : Layer 3
Mode : Joint stereo
Mode extension : MS Stereo
Codec ID : 55
Codec ID/Hint : MP3
Duration : 41mn 57s
Bit rate mode : Constant
Bit rate : 192 Kbps
Channel(s) : 2 channels
Sampling rate : 48.0 KHz
Compression mode : Lossy
Stream size : 57.6 MiB (11%)
Alignment : Aligned on interleaves
Interleave, duration : 42 ms (1.00 video frame)
Interleave, preload duration : 504 ms
Audio #2
ID : 2
Format : MPEG Audio
Format version : Version 1
Format profile : Layer 3
Codec ID : 55
Codec ID/Hint : MP3
Duration : 41mn 57s
Bit rate mode : Constant
Bit rate : 192 Kbps
Channel(s) : 2 channels
Sampling rate : 48.0 KHz
Compression mode : Lossy
Delay relative to video : 24ms
Stream size : 57.6 MiB (11%)
Alignment : Aligned on interleaves
Interleave, duration : 42 ms (1.00 video frame)
Interleave, preload duration : 504 ms
  Не пришедший в себя после того, что случилось с Бобби, Дин одержим идеей найти способ прикончить Дика Романа, в то время как Сэм решает помочь девочке-подростку отыскать её отца, пропавшего без вести охотника.
General
Format : AVI
Format/Info : Audio Video Interleave
File size : 502 MiB
Duration : 42mn 15s
Overall bit rate : 1 661 Kbps
Writing application : VirtualDubMod 1.5.10.1 (build 2366/release)
Writing library : VirtualDubMod build 2366/release
Video #0
ID : 0
Format : MPEG-4 Visual
Format profile : [email protected]
Format settings, BVOP : No
Format settings, QPel : No
Format settings, GMC : No warppoints
Format settings, Matrix : Default (H.263)
Codec ID : XVID
Codec ID/Hint : XviD
Duration : 42mn 15s
Bit rate : 1 263 Kbps
Width : 720 pixels
Height : 400 pixels
Display aspect ratio : 16:9
Frame rate : 23.976 fps
Color space : YUV
Chroma subsampling : 4:2:0
Bit depth : 8 bits
Scan type : Progressive
Compression mode : Lossy
Bits/(Pixel*Frame) : 0.183
Stream size : 382 MiB (76%)
Writing library : XviD 1.2.1 (UTC 2008-12-04)
Audio #1
ID : 1
Format : MPEG Audio
Format version : Version 1
Format profile : Layer 3
Mode : Joint stereo
Mode extension : MS Stereo
Codec ID : 55
Codec ID/Hint : MP3
Duration : 42mn 15s
Bit rate mode : Constant
Bit rate : 192 Kbps
Channel(s) : 2 channels
Sampling rate : 48.0 KHz
Compression mode : Lossy
Stream size : 58.0 MiB (12%)
Alignment : Aligned on interleaves
Interleave, duration : 42 ms (1.00 video frame)
Interleave, preload duration : 504 ms
Writing library : LAME3.97 (beta)
Audio #2
ID : 2
Format : MPEG Audio
Format version : Version 1
Format profile : Layer 3
Mode : Joint stereo
Mode extension : MS Stereo
Codec ID : 55
Codec ID/Hint : MP3
Duration : 42mn 15s
Bit rate mode : Constant
Bit rate : 192 Kbps
Channel(s) : 2 channels
Sampling rate : 48.0 KHz
Compression mode : Lossy
Stream size : 58.0 MiB (12%)
Alignment : Aligned on interleaves
Interleave, duration : 42 ms (1.00 video frame)
Interleave, preload duration : 504 ms
  Пытаясь спасти Дина, которого бог времени закинул в 1944 год в компанию к Элиоту Нессу, Сэм неожиданно встречает старого друга.
General
Format : AVI
Format/Info : Audio Video Interleave
File size : 487 MiB
Duration : 42mn 34s
Overall bit rate : 1 599 Kbps
Writing application : VirtualDubMod 1.5.10.1 (build 2366/release)
Writing library : VirtualDubMod build 2366/release
Video #0
ID : 0
Format : MPEG-4 Visual
Format profile : [email protected]
Format settings, BVOP : No
Format settings, QPel : No
Format settings, GMC : No warppoints
Format settings, Matrix : Default (H.263)
Codec ID : XVID
Codec ID/Hint : XviD
Duration : 42mn 34s
Bit rate : 1 201 Kbps
Width : 720 pixels
Height : 400 pixels
Display aspect ratio : 16:9
Frame rate : 23.976 fps
Color space : YUV
Chroma subsampling : 4:2:0
Bit depth : 8 bits
Scan type : Progressive
Compression mode : Lossy
Bits/(Pixel*Frame) : 0.174
Stream size : 366 MiB (75%)
Writing library : XviD 1.2.1 (UTC 2008-12-04)
Audio #1
ID : 1
Format : MPEG Audio
Format version : Version 1
Format profile : Layer 3
Mode : Joint stereo
Mode extension : MS Stereo
Codec ID : 55
Codec ID/Hint : MP3
Duration : 42mn 34s
Bit rate mode : Constant
Bit rate : 192 Kbps
Channel(s) : 2 channels
Sampling rate : 48.0 KHz
Compression mode : Lossy
Stream size : 58.5 MiB (12%)
Alignment : Aligned on interleaves
Interleave, duration : 42 ms (1.00 video frame)
Interleave, preload duration : 504 ms
Audio #2
ID : 2
Format : MPEG Audio
Format version : Version 1
Format profile : Layer 3
Mode : Joint stereo
Mode extension : MS Stereo
Codec ID : 55
Codec ID/Hint : MP3
Duration : 42mn 34s
Bit rate mode : Constant
Bit rate : 192 Kbps
Channel(s) : 2 channels
Sampling rate : 48.0 KHz
Compression mode : Lossy
Stream size : 58.5 MiB (12%)
Alignment : Aligned on interleaves
Interleave, duration : 42 ms (1.00 video frame)
Interleave, preload duration : 504 ms
  Сэм и Дин расследуют случаи смертей, когда у жертв отрублены кисти рук и ступни, причём, конечности пострадавших заклеймлены странным символом. Пока Сэм ищет информацию в местном университете, Дин отправляется в своё излюбленное место проведения расследований - местный бар. Дин завязывает беседу с местной жительницей по имени Лидия, и они отправляются к ней домой. Сэм выясняет, что символы на жертвах - знаки воинов-амазонок.
General
Format : AVI
Format/Info : Audio Video Interleave
File size : 492 MiB
Duration : 41mn 37s
Overall bit rate : 1 654 Kbps
Writing application : VirtualDubMod 1.5.10.1 (build 2366/release)
Writing library : VirtualDubMod build 2366/release
Video #0
ID : 0
Format : MPEG-4 Visual
Format profile : [email protected]
Format settings, BVOP : No
Format settings, QPel : No
Format settings, GMC : No warppoints
Format settings, Matrix : Default (H.263)
Codec ID : XVID
Codec ID/Hint : XviD
Duration : 41mn 37s
Bit rate : 1 256 Kbps
Width : 720 pixels
Height : 400 pixels
Display aspect ratio : 16:9
Frame rate : 23.976 fps
Color space : YUV
Chroma subsampling : 4:2:0
Bit depth : 8 bits
Scan type : Progressive
Compression mode : Lossy
Bits/(Pixel*Frame) : 0.182
Stream size : 374 MiB (76%)
Writing library : XviD 1.2.1 (UTC 2008-12-04)
Audio #1
ID : 1
Format : MPEG Audio
Format version : Version 1
Format profile : Layer 3
Mode : Joint stereo
Mode extension : MS Stereo
Codec ID : 55
Codec ID/Hint : MP3
Duration : 41mn 37s
Bit rate mode : Constant
Bit rate : 192 Kbps
Channel(s) : 2 channels
Sampling rate : 48.0 KHz
Compression mode : Lossy
Stream size : 57.2 MiB (12%)
Alignment : Aligned on interleaves
Interleave, duration : 42 ms (1.00 video frame)
Interleave, preload duration : 504 ms
Writing library : LAME3.97 (beta)
Audio #2
ID : 2
Format : MPEG Audio
Format version : Version 1
Format profile : Layer 3
Mode : Joint stereo
Mode extension : MS Stereo
Codec ID : 55
Codec ID/Hint : MP3
Duration : 41mn 37s
Bit rate mode : Constant
Bit rate : 192 Kbps
Channel(s) : 2 channels
Sampling rate : 48.0 KHz
Compression mode : Lossy
Stream size : 57.2 MiB (12%)
Alignment : Aligned on interleaves
Interleave, duration : 42 ms (1.00 video frame)
Interleave, preload duration : 504 ms
  Очередное дело приводит Винчестеров в Канзас, где Сэму предстоит лицом к лицу встретиться со своими детскими страхами. Винчестеры проводят расследование в местной пиццерии, где устраиваются празднования дней рождения для детей. Сэм и Дин выясняют, что дети всех жертв недавно побывали в этом ресторане и рисовали картинки своих самых жутких страхов, которые затем явились убить их родителей. Пока Дин разбирается с человеком, стоящим за этим волшебством, Сэм вынужден схлестнуться с чрезвычайно злобными клоунами.
General
Format : AVI
Format/Info : Audio Video Interleave
File size : 688 MiB
Duration : 41mn 43s
Overall bit rate : 2 305 Kbps
Writing application : VirtualDubMod 1.5.10.1 (build 2366/release)
Writing library : VirtualDubMod build 2366/release
Video #0
ID : 0
Format : MPEG-4 Visual
Format profile : [email protected]
Format settings, BVOP : No
Format settings, QPel : No
Format settings, GMC : No warppoints
Format settings, Matrix : Default (H.263)
Codec ID : XVID
Codec ID/Hint : XviD
Duration : 41mn 43s
Bit rate : 1 907 Kbps
Width : 720 pixels
Height : 400 pixels
Display aspect ratio : 16:9
Frame rate : 23.976 fps
Color space : YUV
Chroma subsampling : 4:2:0
Bit depth : 8 bits
Scan type : Progressive
Compression mode : Lossy
Bits/(Pixel*Frame) : 0.276
Stream size : 569 MiB (83%)
Writing library : XviD 1.2.1 (UTC 2008-12-04)
Audio #1
ID : 1
Format : MPEG Audio
Format version : Version 1
Format profile : Layer 3
Mode : Joint stereo
Mode extension : MS Stereo
Codec ID : 55
Codec ID/Hint : MP3
Duration : 41mn 43s
Bit rate mode : Constant
Bit rate : 192 Kbps
Channel(s) : 2 channels
Sampling rate : 48.0 KHz
Compression mode : Lossy
Stream size : 57.3 MiB (8%)
Alignment : Aligned on interleaves
Interleave, duration : 42 ms (1.00 video frame)
Interleave, preload duration : 504 ms
Writing library : LAME3.97 (beta)
Audio #2
ID : 2
Format : MPEG Audio
Format version : Version 1
Format profile : Layer 3
Mode : Joint stereo
Mode extension : MS Stereo
Codec ID : 55
Codec ID/Hint : MP3
Duration : 41mn 43s
Bit rate mode : Constant
Bit rate : 192 Kbps
Channel(s) : 2 channels
Sampling rate : 48.0 KHz
Compression mode : Lossy
Stream size : 57.3 MiB (8%)
Alignment : Aligned on interleaves
Interleave, duration : 42 ms (1.00 video frame)
Interleave, preload duration : 504 ms
  Четыре года назад Сэм и Дин помогли женщине по имени Нора изгнать демона, убивавшего женщин в небольшом городке. Тогда, изгнав демона, Винчестеры спасли почтового служащего Джефри, а теперь, похоже, черноглазый монстр показал свою отвратительную морду, вернувшись за добавкой. Братья наведались к Джефри, запертом в психиатрической лечебнице после того случая, надеясь узнать, не узнал ли он планы демона, когда был одержим.
General
Format : AVI
Format/Info : Audio Video Interleave
File size : 472 MiB
Duration : 42mn 41s
Overall bit rate : 1 544 Kbps
Writing application : VirtualDubMod 1.5.10.1 (build 2366/release)
Writing library : VirtualDubMod build 2366/release
Video #0
ID : 0
Format : MPEG-4 Visual
Format profile : [email protected]
Format settings, BVOP : No
Format settings, QPel : No
Format settings, GMC : No warppoints
Format settings, Matrix : Default (H.263)
Codec ID : XVID
Codec ID/Hint : XviD
Duration : 42mn 41s
Bit rate : 1 146 Kbps
Width : 720 pixels
Height : 400 pixels
Display aspect ratio : 16:9
Frame rate : 23.976 fps
Color space : YUV
Chroma subsampling : 4:2:0
Bit depth : 8 bits
Scan type : Progressive
Compression mode : Lossy
Bits/(Pixel*Frame) : 0.166
Stream size : 350 MiB (74%)
Writing library : XviD 1.2.1 (UTC 2008-12-04)
Audio #1
ID : 1
Format : MPEG Audio
Format version : Version 1
Format profile : Layer 3
Mode : Joint stereo
Mode extension : MS Stereo
Codec ID : 55
Codec ID/Hint : MP3
Duration : 42mn 41s
Bit rate mode : Constant
Bit rate : 192 Kbps
Channel(s) : 2 channels
Sampling rate : 48.0 KHz
Compression mode : Lossy
Stream size : 58.6 MiB (12%)
Alignment : Aligned on interleaves
Interleave, duration : 42 ms (1.00 video frame)
Interleave, preload duration : 504 ms
Writing library : LAME3.97 (beta)
Audio #2
ID : 2
Format : MPEG Audio
Format version : Version 1
Format profile : Layer 3
Mode : Joint stereo
Mode extension : MS Stereo
Codec ID : 55
Codec ID/Hint : MP3
Duration : 42mn 41s
Bit rate mode : Constant
Bit rate : 192 Kbps
Channel(s) : 2 channels
Sampling rate : 48.0 KHz
Compression mode : Lossy
Stream size : 58.6 MiB (12%)
Alignment : Aligned on interleaves
Interleave, duration : 42 ms (1.00 video frame)
Interleave, preload duration : 504 ms
  Погибает балерина, затанцевавшись до смерти. Сэм и Дин решают расследовать это дело и обнаруживают, что на пуанты наложено проклятие. Когда Дин случайно прикасается к ним, то проклятие начинает действовать и на него.
General
Format : AVI
Format/Info : Audio Video Interleave
File size : 555 MiB
Duration : 42mn 34s
Overall bit rate : 1 823 Kbps
Writing application : VirtualDubMod 1.5.10.1 (build 2366/release)
Writing library : VirtualDubMod build 2366/release
Video #0
ID : 0
Format : MPEG-4 Visual
Format profile : [email protected]
Format settings, BVOP : No
Format settings, QPel : No
Format settings, GMC : No warppoints
Format settings, Matrix : Default (H.263)
Codec ID : XVID
Codec ID/Hint : XviD
Duration : 42mn 34s
Bit rate : 1 424 Kbps
Width : 720 pixels
Height : 400 pixels
Display aspect ratio : 16:9
Frame rate : 23.976 fps
Color space : YUV
Chroma subsampling : 4:2:0
Bit depth : 8 bits
Scan type : Progressive
Compression mode : Lossy
Bits/(Pixel*Frame) : 0.206
Stream size : 434 MiB (78%)
Writing library : XviD 1.2.1 (UTC 2008-12-04)
Audio #1
ID : 1
Format : MPEG Audio
Format version : Version 1
Format profile : Layer 3
Mode : Joint stereo
Mode extension : MS Stereo
Codec ID : 55
Codec ID/Hint : MP3
Duration : 42mn 34s
Bit rate mode : Constant
Bit rate : 192 Kbps
Channel(s) : 2 channels
Sampling rate : 48.0 KHz
Compression mode : Lossy
Stream size : 58.5 MiB (11%)
Alignment : Aligned on interleaves
Interleave, duration : 42 ms (1.00 video frame)
Interleave, preload duration : 504 ms
Writing library : LAME3.97 (beta)
Audio #2
ID : 2
Format : MPEG Audio
Format version : Version 1
Format profile : Layer 3
Mode : Joint stereo
Mode extension : MS Stereo
Codec ID : 55
Codec ID/Hint : MP3
Duration : 42mn 34s
Bit rate mode : Variable
Bit rate : 192 Kbps
Minimum bit rate : 192 Kbps
Channel(s) : 2 channels
Sampling rate : 48.0 KHz
Compression mode : Lossy
Stream size : 58.5 MiB (11%)
Alignment : Split accross interleaves
Interleave, duration : 42 ms (1.00 video frame)
Interleave, preload duration : 500 ms
Writing library : LAME3.93
Encoding settings : -m j -V 7 -q 5 --vbr-old -b 192
  Люцифер доводит Сэма до предела и тот попадает в психиатрическую больницу. Отчаянно пытаясь спасти своего брата, Дин обращается к охотникам, вдруг кто-нибудь знает, как ему можно помочь. Один из охотников называет Дину имя целителя, который неожиданно оказывается кем-то очень знакомым...
General
Format : AVI
Format/Info : Audio Video Interleave
File size : 480 MiB
Duration : 42mn 36s
Overall bit rate : 1 576 Kbps
Writing application : VirtualDubMod 1.5.10.1 (build 2366/release)
Writing library : VirtualDubMod build 2366/release
Video #0
ID : 0
Format : MPEG-4 Visual
Format profile : [email protected]
Format settings, BVOP : No
Format settings, QPel : No
Format settings, GMC : No warppoints
Format settings, Matrix : Default (H.263)
Codec ID : XVID
Codec ID/Hint : XviD
Duration : 42mn 36s
Bit rate : 1 178 Kbps
Width : 720 pixels
Height : 400 pixels
Display aspect ratio : 16:9
Frame rate : 23.976 fps
Color space : YUV
Chroma subsampling : 4:2:0
Bit depth : 8 bits
Scan type : Progressive
Compression mode : Lossy
Bits/(Pixel*Frame) : 0.171
Stream size : 359 MiB (75%)
Writing library : XviD 1.2.1 (UTC 2008-12-04)
Audio #1
ID : 1
Format : MPEG Audio
Format version : Version 1
Format profile : Layer 3
Mode : Joint stereo
Mode extension : MS Stereo
Codec ID : 55
Codec ID/Hint : MP3
Duration : 42mn 36s
Bit rate mode : Constant
Bit rate : 192 Kbps
Channel(s) : 2 channels
Sampling rate : 48.0 KHz
Compression mode : Lossy
Stream size : 58.5 MiB (12%)
Alignment : Aligned on interleaves
Interleave, duration : 42 ms (1.00 video frame)
Interleave, preload duration : 504 ms
Writing library : LAME3.97 (beta)
Audio #2
ID : 2
Format : MPEG Audio
Format version : Version 1
Format profile : Layer 3
Mode : Joint stereo
Mode extension : MS Stereo
Codec ID : 55
Codec ID/Hint : MP3
Duration : 42mn 36s
Bit rate mode : Constant
Bit rate : 192 Kbps
Channel(s) : 2 channels
Sampling rate : 48.0 KHz
Compression mode : Lossy
Stream size : 58.5 MiB (12%)
Alignment : Aligned on interleaves
Interleave, duration : 42 ms (1.00 video frame)
Interleave, preload duration : 504 ms
  Дину неожиданно звонит Гарт и просит братьев ему помочь. Сэм и Дин выясняют, что имеют дело с Шоджо, японским существом, которое насылают на врагов, чтобы отомстить. Самое плохое в схватке с Шоджо, то, что увидеть его можно только после большой дозы спиртного.
General
Format : AVI
Format/Info : Audio Video Interleave
File size : 490 MiB
Duration : 42mn 40s
Overall bit rate : 1 607 Kbps
Writing application : VirtualDubMod 1.5.10.1 (build 2366/release)
Writing library : VirtualDubMod build 2366/release
Video #0
ID : 0
Format : MPEG-4 Visual
Format profile : [email protected]
Format settings, BVOP : No
Format settings, QPel : No
Format settings, GMC : No warppoints
Format settings, Matrix : Default (H.263)
Codec ID : XVID
Codec ID/Hint : XviD
Duration : 42mn 40s
Bit rate : 1 209 Kbps
Width : 720 pixels
Height : 400 pixels
Display aspect ratio : 16:9
Frame rate : 23.976 fps
Color space : YUV
Chroma subsampling : 4:2:0
Bit depth : 8 bits
Scan type : Progressive
Compression mode : Lossy
Bits/(Pixel*Frame) : 0.175
Stream size : 369 MiB (75%)
Writing library : XviD 1.2.1 (UTC 2008-12-04)
Audio #1
ID : 1
Format : MPEG Audio
Format version : Version 1
Format profile : Layer 3
Mode : Joint stereo
Mode extension : MS Stereo
Codec ID : 55
Codec ID/Hint : MP3
Duration : 42mn 40s
Bit rate mode : Constant
Bit rate : 192 Kbps
Channel(s) : 2 channels
Sampling rate : 48.0 KHz
Compression mode : Lossy
Stream size : 58.6 MiB (12%)
Alignment : Aligned on interleaves
Interleave, duration : 42 ms (1.00 video frame)
Interleave, preload duration : 504 ms
Audio #2
ID : 2
Format : MPEG Audio
Format version : Version 1
Format profile : Layer 3
Mode : Joint stereo
Mode extension : MS Stereo
Codec ID : 55
Codec ID/Hint : MP3
Duration : 42mn 39s
Bit rate mode : Constant
Bit rate : 192 Kbps
Channel(s) : 2 channels
Sampling rate : 48.0 KHz
Compression mode : Lossy
Stream size : 58.6 MiB (12%)
Alignment : Aligned on interleaves
Interleave, duration : 42 ms (1.00 video frame)
Interleave, preload duration : 504 ms
  Сэму и Дину звонит Энни Хокинс, старая знакомая охотница, и просит о помощи. Когда они прибывают в город, узнают, что Энни исчезла. Они отслеживают её след до заброшенного дома, в котором водится сильный призрак.
General
Format : AVI
Format/Info : Audio Video Interleave
File size : 428 MiB
Duration : 41mn 34s
Overall bit rate : 1 439 Kbps
Writing application : VirtualDubMod 1.5.10.1 (build 2366/release)
Writing library : VirtualDubMod build 2366/release
Video #0
ID : 0
Format : MPEG-4 Visual
Format profile : [email protected]
Format settings, BVOP : No
Format settings, QPel : No
Format settings, GMC : No warppoints
Format settings, Matrix : Default (H.263)
Codec ID : XVID
Codec ID/Hint : XviD
Duration : 41mn 34s
Bit rate : 1 041 Kbps
Width : 720 pixels
Height : 400 pixels
Display aspect ratio : 16:9
Frame rate : 23.976 fps
Color space : YUV
Chroma subsampling : 4:2:0
Bit depth : 8 bits
Scan type : Progressive
Compression mode : Lossy
Bits/(Pixel*Frame) : 0.151
Stream size : 310 MiB (72%)
Writing library : XviD 1.2.1 (UTC 2008-12-04)
Audio #1
ID : 1
Format : MPEG Audio
Format version : Version 1
Format profile : Layer 3
Mode : Joint stereo
Mode extension : MS Stereo
Codec ID : 55
Codec ID/Hint : MP3
Duration : 41mn 34s
Bit rate mode : Constant
Bit rate : 192 Kbps
Channel(s) : 2 channels
Sampling rate : 48.0 KHz
Compression mode : Lossy
Stream size : 57.1 MiB (13%)
Alignment : Aligned on interleaves
Interleave, duration : 42 ms (1.00 video frame)
Interleave, preload duration : 504 ms
Audio #2
ID : 2
Format : MPEG Audio
Format version : Version 1
Format profile : Layer 3
Mode : Joint stereo
Mode extension : MS Stereo
Codec ID : 55
Codec ID/Hint : MP3
Duration : 41mn 34s
Bit rate mode : Constant
Bit rate : 192 Kbps
Channel(s) : 2 channels
Sampling rate : 48.0 KHz
Compression mode : Lossy
Stream size : 57.1 MiB (13%)
Alignment : Aligned on interleaves
Interleave, duration : 42 ms (1.00 video frame)
Interleave, preload duration : 504 ms
  Дик Роман раздобыл жёсткий диск Фрэнка, на котором содержится деликатная информация о Винчестерах, и отдал его ничего не подозревающей выдающейся хакерше Чарли, сказав, что у неё есть 48 часов на то, чтобы пробить защиту, иначе - увольнение. Сэму и Дину дают знать, что у Дика есть жёсткий диск, и они пытаются добраться до Чарли прежде, чем она взломает код. Тем временем, Бобби пытается помочь братьям, но он злится на Дика за свою смерть, и это ему мешает.
General
Format : AVI
Format/Info : Audio Video Interleave
File size : 472 MiB
Duration : 41mn 46s
Overall bit rate mode : Variable
Overall bit rate : 1 579 Kbps
Writing application : VirtualDubMod 1.5.10.1 (build 2366/release)
Writing library : VirtualDubMod build 2366/release
Video #0
ID : 0
Format : MPEG-4 Visual
Format profile : [email protected]
Format settings, BVOP : No
Format settings, QPel : No
Format settings, GMC : No warppoints
Format settings, Matrix : Default (H.263)
Codec ID : XVID
Codec ID/Hint : XviD
Duration : 41mn 46s
Bit rate : 1 185 Kbps
Width : 720 pixels
Height : 400 pixels
Display aspect ratio : 16:9
Frame rate : 23.976 fps
Color space : YUV
Chroma subsampling : 4:2:0
Bit depth : 8 bits
Scan type : Progressive
Compression mode : Lossy
Bits/(Pixel*Frame) : 0.172
Stream size : 354 MiB (75%)
Writing library : XviD 1.2.1 (UTC 2008-12-04)
Audio #1
ID : 1
Format : MPEG Audio
Format version : Version 1
Format profile : Layer 3
Mode : Joint stereo
Mode extension : MS Stereo
Codec ID : 55
Codec ID/Hint : MP3
Duration : 41mn 46s
Bit rate mode : Variable
Bit rate : 192 Kbps
Channel(s) : 2 channels
Sampling rate : 48.0 KHz
Compression mode : Lossy
Stream size : 56.2 MiB (12%)
Alignment : Aligned on interleaves
Interleave, duration : 24 ms (0.58 video frame)
Interleave, preload duration : 490 ms
Writing library : LAME3.97b
Encoding settings : -m j -V 4 -q 3 -lowpass 18.6 --abr 192
Audio #2
ID : 2
Format : MPEG Audio
Format version : Version 1
Format profile : Layer 3
Mode : Joint stereo
Mode extension : MS Stereo
Codec ID : 55
Codec ID/Hint : MP3
Duration : 41mn 45s
Bit rate mode : Variable
Bit rate : 192 Kbps
Channel(s) : 2 channels
Sampling rate : 48.0 KHz
Compression mode : Lossy
Stream size : 55.5 MiB (12%)
Alignment : Aligned on interleaves
Interleave, duration : 24 ms (0.58 video frame)
Interleave, preload duration : 528 ms
Writing library : LAME3.97b
Encoding settings : -m j -V 4 -q 3 -lowpass 18.6 --abr 192
  Мэг звонит Винчестерам и сообщает, что Кастиэль очнулся и заговорил. Тем временем, в подростка по имени Кевин ударяет молния, и он невольно превращается в пророка. Сэм и Дин верят, что Кевин является ключом к победе над левиафанами, но сначала нужно отбить его у двух архангелов, жаждущих использовать его в своих личных целях.
General
Format : AVI
Format/Info : Audio Video Interleave
File size : 393 MiB
Duration : 41mn 57s
Overall bit rate : 1 310 Kbps
Writing application : VirtualDubMod 1.5.10.1 (build 2366/release)
Writing library : VirtualDubMod build 2366/release
Video #0
ID : 0
Format : MPEG-4 Visual
Format profile : [email protected]
Format settings, BVOP : No
Format settings, QPel : No
Format settings, GMC : No warppoints
Format settings, Matrix : Default (H.263)
Codec ID : XVID
Codec ID/Hint : XviD
Duration : 41mn 57s
Bit rate : 912 Kbps
Width : 720 pixels
Height : 400 pixels
Display aspect ratio : 16:9
Frame rate : 23.976 fps
Color space : YUV
Chroma subsampling : 4:2:0
Bit depth : 8 bits
Scan type : Progressive
Compression mode : Lossy
Bits/(Pixel*Frame) : 0.132
Stream size : 274 MiB (70%)
Writing library : XviD 1.2.1 (UTC 2008-12-04)
Audio #1
ID : 1
Format : MPEG Audio
Format version : Version 1
Format profile : Layer 3
Mode : Joint stereo
Mode extension : MS Stereo
Codec ID : 55
Codec ID/Hint : MP3
Duration : 41mn 57s
Bit rate mode : Constant
Bit rate : 192 Kbps
Channel(s) : 2 channels
Sampling rate : 48.0 KHz
Compression mode : Lossy
Stream size : 57.6 MiB (15%)
Alignment : Aligned on interleaves
Interleave, duration : 42 ms (1.00 video frame)
Interleave, preload duration : 504 ms
Writing library : LAME3.97 (beta)
Audio #2
ID : 2
Format : MPEG Audio
Format version : Version 1
Format profile : Layer 3
Mode : Joint stereo
Mode extension : MS Stereo
Codec ID : 55
Codec ID/Hint : MP3
Duration : 41mn 57s
Bit rate mode : Constant
Bit rate : 192 Kbps
Channel(s) : 2 channels
Sampling rate : 48.0 KHz
Compression mode : Lossy
Stream size : 57.6 MiB (15%)
Alignment : Aligned on interleaves
Interleave, duration : 42 ms (1.00 video frame)
Interleave, preload duration : 504 ms
  Для того, чтобы победить Дика Романа и левиафанов, Сэм и Дин должны найти три ключевых элемента. Кастиэль помогает найти один, но, пытаясь добраться до двух остальных, Винчестеры сталкиваются с сильнейшими противниками — Альфой вампиров и Кроули. Тем временем Бобби-призрак пытается использовать новый трюк, что приводит к очень опасным последствиям.
General
Format : AVI
Format/Info : Audio Video Interleave
File size : 488 MiB
Duration : 42mn 45s
Overall bit rate : 1 596 Kbps
Writing application : VirtualDubMod 1.5.10.1 (build 2366/release)
Writing library : VirtualDubMod build 2366/release
Video #0
ID : 0
Format : MPEG-4 Visual
Format profile : [email protected]
Format settings, BVOP : No
Format settings, QPel : No
Format settings, GMC : No warppoints
Format settings, Matrix : Default (H.263)
Codec ID : XVID
Codec ID/Hint : XviD
Duration : 42mn 45s
Bit rate : 1 198 Kbps
Width : 720 pixels
Height : 400 pixels
Display aspect ratio : 16:9
Frame rate : 23.976 fps
Color space : YUV
Chroma subsampling : 4:2:0
Bit depth : 8 bits
Scan type : Progressive
Compression mode : Lossy
Bits/(Pixel*Frame) : 0.173
Stream size : 366 MiB (75%)
Writing library : XviD 1.2.1 (UTC 2008-12-04)
Audio #1
ID : 1
Format : MPEG Audio
Format version : Version 1
Format profile : Layer 3
Mode : Joint stereo
Mode extension : MS Stereo
Codec ID : 55
Codec ID/Hint : MP3
Duration : 42mn 45s
Bit rate mode : Constant
Bit rate : 192 Kbps
Channel(s) : 2 channels
Sampling rate : 48.0 KHz
Compression mode : Lossy
Stream size : 58.7 MiB (12%)
Alignment : Aligned on interleaves
Interleave, duration : 42 ms (1.00 video frame)
Interleave, preload duration : 504 ms
Writing library : LAME3.97 (beta)
Audio #2
ID : 2
Format : MPEG Audio
Format version : Version 1
Format profile : Layer 3
Mode : Joint stereo
Mode extension : MS Stereo
Codec ID : 55
Codec ID/Hint : MP3
Duration : 42mn 44s
Bit rate mode : Constant
Bit rate : 192 Kbps
Channel(s) : 2 channels
Sampling rate : 48.0 KHz
Compression mode : Lossy
Stream size : 58.7 MiB (12%)
Alignment : Aligned on interleaves
Interleave, duration : 42 ms (1.00 video frame)
Interleave, preload duration : 504 ms
  Дин и Сэм готовятся к сражению с Диком Романом. Дик приступил к завершающей фазе своего плана, и Винчестерам приходится скооперироваться с Кастиэлем, Бобби, Мэг и пророком Кевином, чтобы остановить его. Однако, Дик — самый умный враг, из всех, с кем приходилось сталкиваться братьям, поэтому обхитрить его не так-то просто.
General
Format : AVI
Format/Info : Audio Video Interleave
File size : 500 MiB
Duration : 41mn 50s
Overall bit rate : 1 672 Kbps
Writing application : VirtualDubMod 1.5.10.1 (build 2366/release)
Writing library : VirtualDubMod build 2366/release
Video #0
ID : 0
Format : MPEG-4 Visual
Format profile : [email protected]
Format settings, BVOP : No
Format settings, QPel : No
Format settings, GMC : No warppoints
Format settings, Matrix : Default (H.263)
Codec ID : XVID
Codec ID/Hint : XviD
Duration : 41mn 50s
Bit rate : 1 274 Kbps
Width : 720 pixels
Height : 400 pixels
Display aspect ratio : 16:9
Frame rate : 23.976 fps
Color space : YUV
Chroma subsampling : 4:2:0
Bit depth : 8 bits
Scan type : Progressive
Compression mode : Lossy
Bits/(Pixel*Frame) : 0.184
Stream size : 381 MiB (76%)
Writing library : XviD 1.2.1 (UTC 2008-12-04)
Audio #1
ID : 1
Format : MPEG Audio
Format version : Version 1
Format profile : Layer 3
Mode : Joint stereo
Mode extension : MS Stereo
Codec ID : 55
Codec ID/Hint : MP3
Duration : 41mn 50s
Bit rate mode : Constant
Bit rate : 192 Kbps
Channel(s) : 2 channels
Sampling rate : 48.0 KHz
Compression mode : Lossy
Stream size : 57.5 MiB (11%)
Alignment : Aligned on interleaves
Interleave, duration : 42 ms (1.00 video frame)
Interleave, preload duration : 504 ms
Audio #2
ID : 2
Format : MPEG Audio
Format version : Version 1
Format profile : Layer 3
Mode : Joint stereo
Mode extension : MS Stereo
Codec ID : 55
Codec ID/Hint : MP3
Duration : 41mn 49s
Bit rate mode : Constant
Bit rate : 192 Kbps
Channel(s) : 2 channels
Sampling rate : 48.0 KHz
Compression mode : Lossy
Stream size : 57.4 MiB (11%)
Alignment : Aligned on interleaves
Interleave, duration : 42 ms (1.00 video frame)
Interleave, preload duration : 504 ms
--Седьмой сезон полностью! Ждем 8-ого...-...30.10.2012 изменена топология файлов, добавлена папка BONUS с дополнительными материалами к 7 сезону...
Download / Скачать

Хотите скачать бесплатно? Зарегистрируйтесь на сайте (ссылка на регистрацию). Pirat.ca - самый быстрый торрент трекер в рунете!

Как скачивать  ·   Что такое торрент  ·   Рейтинг и ограничения



Последний раз редактировалось: Porutchik (2012-10-30 22:05), всего редактировалось 27 раз(а)

Пост 17-Ноя-2011 00:41 (спустя 9 часов)

Топик был перенесен из форума Сериалы в форум Сериалы в эфире

gEmOkPaT
 

persecond

Морской Волк

Пост 19-Дек-2011 00:28 (спустя 1 месяц 2 дня)

[Q] 

Прежде всего спасибо за оформление раздачи: я уже недели две-три не думаю об этом сериале, и забыл, на чём остановился. А взглянув под спойлер с описанием серий сразу нашёл искомую.
По поводу сериала: после второго сезона это уже мазурка какая-то.
Спасибо!
P.S.: и всё же один минус выделяется — отсутствие авторов перевода и озвучивания в привычном для всех формате. То есть, не взглянув на первый скрин, не понял бы, что «Студия "Кравец"» — это "LostFilm".

_________________
Будь профи: делай, что нужно, улыбаясь, или не делай вовсе.
[Профиль]  [ЛС] 

The_Yozh

Корсар

Пост 25-Дек-2011 01:37 (спустя 6 дней)

[Q] 

ну дык народ хочет смотреть сверъестественное ,вот они и снимают)) согласен ,что первые два сезона были самыми лучшими. 6й огорчил) посмотрим ,что тут наснимали

_________________
[Профиль]  [ЛС] 

gEmOkPaT

1423

Пост 26-Дек-2011 21:01 (спустя 1 день 19 часов)

[Q] 

не взглянув на первый скрин, не понял бы, что «Студия "Кравец"» — это "LostFilm".
ну сами лосты себя студией кравец обзывают)) всё честно bk

_________________
[Профиль]  [ЛС] 

persecond

Морской Волк

Пост 12-Янв-2012 01:07 (спустя 16 дней)

[Q] 

не взглянув на первый скрин, не понял бы, что «Студия "Кравец"» — это "LostFilm".
ну сами лосты себя студией кравец обзывают)) всё честно bk
Так я ж без претензий! :) Просто не могли бы в в скобках что ли добавить "LostFilm"? Для общего, так сказать, удобства?

_________________
Будь профи: делай, что нужно, улыбаясь, или не делай вовсе.
[Профиль]  [ЛС] 

gEmOkPaT

1423

Пост 23-Янв-2012 21:31 (спустя 11 дней)

[Q] 

persecond, Добавил))

_________________
[Профиль]  [ЛС] 

Androdrakon

Шкипер

22

Пост 24-Янв-2012 08:57 (спустя 11 часов)

[Q] 

скорости плиз

_________________
Играй вместе сомной в Аллоды онлайн
[Профиль]  [ЛС] 

ArmeethGarry

Морской Волк

Пост 25-Янв-2012 00:59 (спустя 16 часов)

[Q] 

Ау, на раздаче кто-нить есть????.....
[Профиль]  [ЛС] 

ArmeethGarry

Морской Волк

Пост 25-Янв-2012 01:05 (спустя 5 минут)

[Q] 

Скачаю, помогу с раздачей.
[Профиль]  [ЛС] 

Tesak

Шкипер

Пост 29-Янв-2012 19:06 (спустя 4 дня)

[Q] 

Спасибо,оболденный сериал!
[Профиль]  [ЛС] 

paramon511

Морской Волк

Пост 27-Фев-2012 08:14 (спустя 28 дней)

[Q] 

когда продолжение?

_________________
[Профиль]  [ЛС] 

Porutchik ®

Шкипер

216

Пост 27-Фев-2012 08:39 (спустя 25 минут)

[Q] 

paramon511
До конца марта ждать...

_________________
[Профиль]  [ЛС] 

Maniac93

Корсар

Пост 12-Мар-2012 22:43 (спустя 14 дней)

[Q] 

Porutchik,печальная новость :( я так надеялся на выход новой серии последние 3 недели
[Профиль]  [ЛС] 

Витя777

Лоцман

Пост 22-Мар-2012 08:34 (спустя 9 дней)

[Q] 

Подскажите пжл,где можно найти с озвучкой Nova(((
[Профиль]  [ЛС] 

Maniac93

Корсар

Пост 24-Мар-2012 22:51 (спустя 2 дня 14 часов)

[Q] 

Автор уснул там или что? уже 16 серия есть на других торрентах от Lostfilm,а я все вас жду не дождусь :[
[Профиль]  [ЛС] 

Ryddik

Корсар

5

Пост 28-Мар-2012 21:58 (спустя 3 дня)

[Q] 

может без папок сделать раздачу bk
[Профиль]  [ЛС] 

Porutchik ®

Шкипер

216

Пост 04-Апр-2012 19:22 (спустя 6 дней)

[Q] 

может без папок сделать раздачу bk
Так удобнее, плеер сразу хватает субтитры. Да и к раздаче могут люди подключаться...

_________________
[Профиль]  [ЛС] 

persecond

Морской Волк

Пост 13-Апр-2012 21:36 (спустя 9 дней)

[Q] 

19-ая серия указана в описании, но в раздаче отсутствует. В чём, простите, дело?

_________________
Будь профи: делай, что нужно, улыбаясь, или не делай вовсе.
[Профиль]  [ЛС] 

Old Gamer 84

Лоцман

Пост 26-Апр-2012 01:02 (спустя 12 дней)

[Q] 

где новая серия
[Профиль]  [ЛС] 

Porutchik ®

Шкипер

216

Пост 27-Апр-2012 23:13 (спустя 1 день 22 часа)

[Q] 

persecond, на тот момент она еще не вышла, медиа инфо пустое... Но описание уже было...
Old Gamer 84, на трекере...

_________________
[Профиль]  [ЛС] 

vvzorg

Пост 28-Апр-2012 22:44 (спустя 23 часа)

[Q] 

и всё же один минус выделяется — отсутствие авторов перевода и озвучивания в привычном для всех формате. То есть, не взглянув на первый скрин, не понял бы, что «Студия "Кравец"» — это "LostFilm"
Потому самое лучшее это озвучка с (РЭНТВ)
Но всеравно спасибо, теперь я знаю что будет 7сезон
[Профиль]  [ЛС] 

vvzorg

Пост 28-Апр-2012 22:49 (спустя 5 минут)

[Q] 

Потому самое лучшее это озвучка с (РЭНТВ)
Но всеравно спасибо, теперь я знаю что будет 7сезон
[Профиль]  [ЛС] 

Maniac93

Корсар

Пост 28-Апр-2012 23:14 (спустя 25 минут)

[Q] 

Блин что-то Лост`ы медленно работают,или сами оригиналы Супры медленно выходят.
В любом случае спасибо что не забил на раздачу!
[Профиль]  [ЛС] 

Porutchik ®

Шкипер

216

Пост 29-Апр-2012 23:05 (спустя 23 часа)

[Q] 

vvzorg, ну да.... А ЕЩЕ МОЖНО И ОПИСАНИЕ НОРМАЛЬНО ПРОЧИТАТЬ, да и в названии раздачи все это указано...
Перевод: Fargate
Озвучка: Студия "Кравец" (LostFilm)

_________________
[Профиль]  [ЛС] 

nadabibak

Гроза морей

Пост 21-Май-2012 17:13 (спустя 21 день)

[Q] 

Сериал продлён на 8-й сезон! С 11 Октября выходит новые серии.
[Профиль]  [ЛС] 

Maniac93

Корсар

Пост 22-Май-2012 10:20 (спустя 17 часов)

[Q] 

Окончание интригующее очень-очень! С нетерпением буду ждать 8й сезон :3
[Профиль]  [ЛС] 

Porutchik ®

Шкипер

216

Пост 22-Май-2012 17:42 (спустя 7 часов)

[Q] 

Maniac93, nadabibak
...нууууу 23 серии то еще не видели...

_________________
[Профиль]  [ЛС] 

Maniac93

Корсар

Пост 23-Май-2012 23:38 (спустя 1 день 5 часов)

[Q] 

Maniac93, nadabibak
...нууууу 23 серии то еще не видели...
я не осилил ждать и пришлось смотреть в оригинале,благо английский позволяет...конечно без субтитров не обошлось,а то иногда скажут что-то такое спецефическое,что некогда думать о переводе даж
P.S смотрел 21-22 тоже в оригинале но и здесь их скачал и 23 скачаю,буду поддерживать раздачу сколько смогу
[Профиль]  [ЛС] 

Ryddik

Корсар

5

Пост 26-Май-2012 14:21 (спустя 2 дня 14 часов)

[Q] 

повторюсь, но угнетает раздача в папках
[Профиль]  [ЛС] 
Показать сообщения:    
Ответить на тему

Текущее время: Сегодня 03:12

Часовой пояс: GMT + 4



Вы не можете начинать темы
Вы не можете отвечать на сообщения
Вы не можете редактировать свои сообщения
Вы не можете удалять свои сообщения
Вы не можете голосовать в опросах
Вы не можете прикреплять файлы к сообщениям
Вы не можете скачивать файлы

▼ Вниз