ML
     
  Уважаемый Гость!
Вы можете поддержать проект и зарегистрироваться у наших партнеров - онлайн-стратегия MyLands. При регистрации в игре Вы получите код, который сможете активировать после регистрации на pirat.ca и получить 1000 дублонов.

Ваш код:
500cb7bd8d2cec9a8aba647a87ce41c4b76f06bd
 
     

Пси фактор / Psi factor (1-4 сезон)[ТВ6] (Джон Белл John Bell Рон Оливер Ron Oliver Клей Боррис Clay Borris Джиллз Уолкер Giles Walker) [1996 г., Фантастика Драма, TVRip,] (MVO)

Ответить на тему
 
Автор
Сообщение

Пост 18-Ноя-2011 19:13

[Q] 

alexandr.x79

Корсар

Пси фактор / Psi factor 1-4 сезон
Год выпуска: 1996
Мировая премьера: 16 декабря 1996
Российская премьера: 28 апреля 1998
Производство: Канада
Жанр: Фантастика Драма
Продолжительность: ~00:45:00\Серия
Перевод: Профессиональный (многоголосый, закадровый)
Авторы перевода: (ТВ6)
Оригинальный аудиопоток: Английский
Режиссер: Джон Белл John Bell Рон Оливер Ron Oliver Клей Боррис Clay Borris Джиллз Уолкер Giles Walker
В ролях: Дэн Экройд, Нэнси Энн Сакович, Барклай Хоуп, Колин Фокс, Мэтт Фревер, Питер МакНейл, Найджел Беннетт, Пол Миллер, Питер Блэ
Описание: Агенты американского правительственного бюро научных исследований проводят расследования различных аномальных ситуаций по всему миру. Многие тайны в конце оказываются вполне объяснимы, но некоторые так и остаются под вопросом.
: AVI
Формат/Информация : Audio Video Interleave
Размер файла : 399 Мбайт
Продолжительность : 43 м.
Режим общего битрейта : Переменный
Общий поток : 1280 Кбит/сек
Программа кодирования : VirtualDubMod 1.5.10.2 (build 2542/release)
Библиотека кодирования : VirtualDubMod build 2542/release
Видео
Идентификатор : 0
Формат : MPEG-4 Visual
Профиль формата : Advanced [email protected]
Параметр BVOP формата : 2
Параметр QPel формата : Нет
Параметр GMC формата : Без точки перехода
Параметр матрицы формата : Default (H.263)
Идентификатор кодека : XVID
Идентификатор кодека/Подсказка : XviD
Продолжительность : 43 м.
Битрейт : 942 Кбит/сек
Ширина : 512 пикселей
Высота : 384 пикселя
Соотношение сторон : 4:3
Частота кадров : 25,000 кадров/сек
Цветовое пространство : YUV
Субдискретизация насыщенности : 4:2:0
Битовая глубина : 8 бит
Тип развёртки : Прогрессивная
Метод сжатия : С потерями
Бит/(Пиксели*Кадры) : 0.192
Размер потока : 294 Мбайт (74%)
Библиотека кодирования : XviD 1.1.2 (UTC 2006-11-01)
Аудио #1
Идентификатор : 1
Формат : MPEG Audio
Версия формата : Version 1
Профиль формата : Layer 3
Режим : Joint stereo
Расширение режима : MS Stereo
Идентификатор кодека : 55
Идентификатор кодека/Подсказка : MP3
Продолжительность : 43 м.
Вид битрейта : Переменный
Битрейт : 150 Кбит/сек
Номинальный битрейт : 170 Кбит/сек
Каналы : 2 канала
Частота : 48,0 КГц
Метод сжатия : С потерями
Размер потока : 46,7 Мбайт (12%)
Выравнивание : Соединение по промежуткам
Продолжительность промежутка : 24 мс. (0,60 видеокадр)
Время предзагрузки промежутка : 578 мс.
Библиотека кодирования : LAME3.97
Настройки программы : -m j -V 4 -q 2 -lowpass 17.5 --abr 170
Аудио #2
Идентификатор : 2
Формат : MPEG Audio
Версия формата : Version 1
Профиль формата : Layer 3
Режим : Joint stereo
Расширение режима : MS Stereo
Идентификатор кодека : 55
Идентификатор кодека/Подсказка : MP3
Продолжительность : 43 м.
Вид битрейта : Переменный
Битрейт : 168 Кбит/сек
Каналы : 2 канала
Частота : 48,0 КГц
Метод сжатия : С потерями
Размер потока : 52,2 Мбайт (13%)
Выравнивание : Соединение по промежуткам
Продолжительность промежутка : 24 мс. (0,60 видеокадр)
Время предзагрузки промежутка : 496 мс.
Библиотека кодирования : LAME3.93
Настройки программы : -m j -V 1 -q 1 -lowpass 19.6 --vbr-new
Источник/Качество: TVRip
Формат: AVI
Видео кодек: XviD
Аудио кодек: MP3
Видео: 512x384 (1.33:1), 25 fps, XviD Final 1.0.3 (build 37) ~971 kbps avg, 0.20 bit/pixel
Аудио: 48 kHz, MPEG Layer 3, 2 ch, ~143.62 kbps avg
Аудио #2: 48 kHz, MPEG Layer 3, 2 ch, ~139.02 kbps avg
Формат: AVI
Видео кодек: XviD
Аудио кодек: MP3
Видео: 480x368 (1.30:1), 25 fps, XviD Final 1.0.3 (build 37) ~1132 kbps avg, 0.26 bit/pixel
Аудио: 48 kHz, MPEG Layer 3, 2 ch, ~126.62 kbps avg



Download / Скачать

Хотите скачать бесплатно? Зарегистрируйтесь на сайте (ссылка на регистрацию). Pirat.ca - самый быстрый торрент трекер в рунете!

Как скачивать  ·   Что такое торрент  ·   Рейтинг и ограничения



Последний раз редактировалось: alexandr.x79 (2011-11-20 15:23), всего редактировалось 6 раз(а)

Пост 22-Ноя-2011 10:28 (спустя 3 дня)

Топик был перенесен из форума Сериалы в форум Зарубежные сериалы

gEmOkPaT
 

azubrilov78

Корсар

62

Пост 03-Янв-2012 20:21 (спустя 1 месяц 15 дней)

[Q] 

Спасибо за сериал моей юности!!!
[Профиль]  [ЛС] 

azubrilov78

Корсар

62

Пост 10-Авг-2012 15:45 (спустя 7 месяцев 6 дней)

[Q] 

А 5 сезон и дальше будут?
[Профиль]  [ЛС] 

Sagan2000

Лоцман

Пост 28-Ноя-2012 22:54 (спустя 3 месяца 18 дней)

[Q] 

Встаньте пожалуйста на раздачу.
[Профиль]  [ЛС] 

SuperBeTeR

Морской Волк

Пост 20-Июн-2013 12:26 (спустя 6 месяцев 21 день)

[Q] 

Сериал "Лечим с три короба. Основано на реальных событиях".
[Профиль]  [ЛС] 
Показать сообщения:    
Ответить на тему

Текущее время: Сегодня 01:50

Часовой пояс: GMT + 4



Вы не можете начинать темы
Вы не можете отвечать на сообщения
Вы не можете редактировать свои сообщения
Вы не можете удалять свои сообщения
Вы не можете голосовать в опросах
Вы не можете прикреплять файлы к сообщениям
Вы не можете скачивать файлы

▼ Вниз