ML
     
  Уважаемый Гость!
Вы можете поддержать проект и зарегистрироваться у наших партнеров - онлайн-стратегия MyLands. При регистрации в игре Вы получите код, который сможете активировать после регистрации на pirat.ca и получить 1000 дублонов.

Ваш код:
c3360d664ceb84802c84b88ed062a5d134e2ba97
 
     

Шерлок Холмс / Sherlock (Сезон 1\ серии 3 из 3) (Пол МакГиган / Paul McGuigan) [2010, драма, детектив, HDRip] (Dub)

Ответить на тему
 
Автор
Сообщение

Пост 22-Ноя-2011 14:22

[Q] 

goxakrauter

Шерлок Холмс / Sherlock (3 из 3)«A new sleuth for the 21st Century»- Год выпуска: 2010
Страна: Великобритания
Жанр: драма, детектив
Продолжительность: 04:25:52 (~01:30:00 x 3)
Перевод: Профессиональный (полное дублирование) - Первый канал
Оригинальный аудио поток : Есть (Английский)-Режиссёр: Пол МакГиган / Paul McGuigan
В ролях: Бенедикт Камбербэтч, Мартин Фриман, Руперт Грейвз, Уна Стаббс, Лу Брили, Зои Телфорд, Питер Брук, Джемма Чан, Виннет Робинсон, Джини Спар-Описание: Сериал "Шерлок" от телеканала ВВС основан на работах сэра Артура Конан Дойля, но действие перенесено в наше время.
Военный врач, герой войны, возвращается домой из Афганистана после ранения и знакомится со странным, но харизматическим гением, который ищет соседа по квартире. Дальнейшее события происходят в Лондоне 2010 года.-Кинопоиск, IMDb
-
Качество: HDRip
Формат: AVI
Видео кодек: XviD
Аудио кодек: AC3
Видео: 720x400 (1.80:1), 25 fps, XviD build 47 ~1722 kbps avg, 0.24 bit/pixel
Аудио 1: (Rus): 48 kHz, AC3 Dolby Digital, 2/0 (L,R) ch, ~192.00 kbps avg
Аудио 2: (Eng): 48 kHz, AC3 Dolby Digital, 3/2 (L,C,R,l,r) + LFE ch, ~448.00 kbps avg-
General
Format : AVI
Format/Info : Audio Video Interleave
File size : 1.46 GiB
Duration : 1h 28mn
Overall bit rate : 2 377 Kbps
Writing application : VirtualDubModRus 1.5.10.1 (build 2439/release)
Writing library : VirtualDubMod build 2439/release
Video
ID : 0
Format : MPEG-4 Visual
Format profile : Advanced [email protected]
Format settings, BVOP : 3
Format settings, QPel : No
Format settings, GMC : No warppoints
Format settings, Matrix : Default (H.263)
Codec ID : XVID
Codec ID/Hint : XviD
Duration : 1h 28mn
Bit rate : 1 723 Kbps
Width : 720 pixels
Height : 400 pixels
Display aspect ratio : 16:9
Frame rate : 25.000 fps
Color space : YUV
Chroma subsampling : 4:2:0
Bit depth : 8 bits
Scan type : Progressive
Compression mode : Lossy
Bits/(Pixel*Frame) : 0.239
Stream size : 1.06 GiB (72%)
Writing library : XviD 1.2.0.dev47 (UTC 2006-11-01)
Audio #1
ID : 1
Format : AC-3
Format/Info : Audio Coding 3
Mode extension : CM (complete main)
Codec ID : 2000
Duration : 1h 28mn
Bit rate mode : Constant
Bit rate : 192 Kbps
Channel(s) : 2 channels
Channel positions : Front: L R
Sampling rate : 48.0 KHz
Bit depth : 16 bits
Compression mode : Lossy
Stream size : 121 MiB (8%)
Alignment : Split accross interleaves
Interleave, duration : 40 ms (1.00 video frame)
Interleave, preload duration : 500 ms
Audio #2
ID : 2
Format : AC-3
Format/Info : Audio Coding 3
Mode extension : CM (complete main)
Codec ID : 2000
Duration : 1h 28mn
Bit rate mode : Constant
Bit rate : 448 Kbps
Channel(s) : 6 channels
Channel positions : Front: L C R, Side: L R, LFE
Sampling rate : 48.0 KHz
Bit depth : 16 bits
Compression mode : Lossy
Stream size : 282 MiB (19%)
Alignment : Split accross interleaves
Interleave, duration : 40 ms (1.00 video frame)
Interleave, preload duration : 500 ms



Download / Скачать

Хотите скачать бесплатно? Зарегистрируйтесь на сайте (ссылка на регистрацию). Pirat.ca - самый быстрый торрент трекер в рунете!

Как скачивать  ·   Что такое торрент  ·   Рейтинг и ограничения

Пост 22-Ноя-2011 15:00 (спустя 37 минут)

Топик был перенесен из форума Сериалы в форум Зарубежные сериалы

gEmOkPaT
 

nazar-333

Лоцман

Пост 29-Ноя-2011 03:57 (спустя 6 дней)

[Q] 

дайте скорость!
[Профиль]  [ЛС] 

Dengrin

Лоцман

Пост 02-Янв-2012 19:03 (спустя 1 месяц 3 дня)

[Q] 

Дайте скорость!!!
[Профиль]  [ЛС] 

goxakrauter ®

4540

Пост 02-Янв-2012 20:13 (спустя 1 час 10 минут)

[Q] 

Dengrin, проявляйте терпение! Если я стою на раздаче, значит все рано или поздно будет) bs
[Профиль]  [ЛС] 

goxakrauter ®

4540

Пост 03-Янв-2012 00:33 (спустя 4 часа)

[Q] 

2 сезон
[Профиль]  [ЛС] 

LINEY93

Штурман

Пост 10-Янв-2012 14:04 (спустя 7 дней)

[Q] 

Филььм отличный, сасибо, жаль только что всякие надиси не переведены, типа СМС, мыслей шерлока, вчера по ТВ видел серию с переведенными
[Профиль]  [ЛС] 

Maxim54rus

Корсар

40

Пост 17-Янв-2012 08:49 (спустя 6 дней)

[Q] 

Спасибо.
[Профиль]  [ЛС] 

Silver

Морской Волк

Пост 12-Мар-2012 18:36 (спустя 1 месяц 26 дней)

[Q] 

Известно когда продолжение будет?
[Профиль]  [ЛС] 

Shubnikoff

Морской Волк

Пост 20-Мар-2013 19:00 (спустя 1 год)

[Q] 

[Профиль]  [ЛС] 

VANEK23

Морской Волк

Пост 10-Апр-2013 11:53 (спустя 20 дней)

[Q] 

[Профиль]  [ЛС] 

feelgood72

Лоцман

Пост 21-Дек-2013 21:05 (спустя 8 месяцев 11 дней)

[Q] 

ребят, дайте скорости!) Спасибо!!!
[Профиль]  [ЛС] 

доктор Е

Лоцман

Пост 13-Апр-2014 09:41 (спустя 3 месяца 22 дня)

[Q] 

Скоростей требуют наши сердца!!!Встаньте на раздачу плз!!!
[Профиль]  [ЛС] 

pp2141

Гроза морей

Пост 20-Ноя-2014 17:15 (спустя 7 месяцев 7 дней)

[Q] 

Спасибо!!! Спасибо
[Профиль]  [ЛС] 

kabanozzzz

Лоцман

Пост 10-Дек-2014 03:08 (спустя 19 дней)

[Q] 

долгое время не хотел смотреть из-за кембербетча, но в кино он оказался куда круче, чем на картинке)
[Профиль]  [ЛС] 

odyssey123

Флибустьер

Пост 27-Дек-2014 22:51 (спустя 17 дней)

[Q] 

Спасибо!!!
Супер!
Посмотрим...
[Профиль]  [ЛС] 

М_Э_Б_У_К_Х

Шкипер

129

Пост 03-Янв-2015 23:46 (спустя 7 дней)

[Q] 

Если я не ошибаюсь, по-русски сериал называется просто "Шерлок", а не "Шерлок Холмс". Например, на тех же КиноПоиске или IMDB...
А за раздачу спасибо

_________________
↓ Не поленись нажать на ссылку! ↓

↑ Не поленись нажать на ссылку! ↑
[Профиль]  [ЛС] 

Alesk

Шкипер

Пост 13-Янв-2015 22:58 (спустя 9 дней)

[Q] 

Спасибо!!! прикольный сериал

_________________
Подпись отключена за нарушение правил форума
[Профиль]  [ЛС] 

Maniac93

Корсар

Пост 31-Янв-2016 19:41 (спустя 1 год)

[Q] 

спасибо за раздачу, будет что посмотреть!
[Профиль]  [ЛС] 
Показать сообщения:    
Ответить на тему

Текущее время: Сегодня 10:02

Часовой пояс: GMT + 4



Вы не можете начинать темы
Вы не можете отвечать на сообщения
Вы не можете редактировать свои сообщения
Вы не можете удалять свои сообщения
Вы не можете голосовать в опросах
Вы не можете прикреплять файлы к сообщениям
Вы не можете скачивать файлы

▼ Вниз