ML
     
  Уважаемый Гость!
Вы можете поддержать проект и зарегистрироваться у наших партнеров - онлайн-стратегия MyLands. При регистрации в игре Вы получите код, который сможете активировать после регистрации на pirat.ca и получить 1000 дублонов.

Ваш код:
ba41f7961e0b4717aed6a401d955262223b8f6c4
 
     

Теория Большого Взрыва / The Big Bang Theory (Сезон 2, Серия 1-23 (23))[Кураж-Бамбей] (Чак Лорри) [2009, Ситком] [HDTV 720p] (rus subs)(VO)

Ответить на тему
 
Автор
Сообщение

Пост 24-Ноя-2011 21:01

[Q] 

Андря

Теория Большого Взрыва / The Big Bang Theory [Season 2]
Год выпуска: 2009
Страна: США | Warner Bros. Television
Жанр: Ситком
Продолжительность: 23 серии по 22 минуты
Перевод: Профессиональный (одноголосый) - Кураж-Бамбей
Оригинальная дорожка: Английская
Субтитры: русские
Автор идеи: Чак Лорри
В ролях: Джонни Галаки, Джим Парсонс, Кейли Куоко, Саймон Хелберг, Кунал Найар, Сара Гилберт
Описание: Два блестящих физика, Леонард и Шелдон, «великие умы», которые понимают как «работает вселенная». Но их гениальность ничуть не помогает им общаться с людьми, особенно с женщинами. Всё начинает меняться, когда напротив них поселяется красавица Пенни.
Когда Леонард и Шелдон встречают Пенни, Леонард сразу же начинает интересоваться ею. Он видит в общении с Пенни огромную перспективу… вплоть до любви, однако Шелдон понимает, что мечтам его друга не суждено сбыться.
Стоит также отметить пару странных друзей этих физиков: Воловиц, который любит употреблять фразы на разных языках, включая русский, и Раджеш Кутраппали, теряющий дар речи при виде женщин.
Качество: HDTV [720p]
Формат: MKV
Видео кодек: H.264
Аудио кодек: AC3
Видео: 1280x720,23,976 кадра/сек, 3272 Кбит/сек,0.148 bit/pixel, 16:9
Аудио #1: AC3 5.1, 48 KHz, 384 Кбит/сек (Кураж-Бамбей)
Аудио #2: AC3 5.1, 48 KHz,384 Кбит/сек (Оригинальная дорожка)
Общее
Уникальный идентификатор : 220419869758043419271029195647058139254 (0xA5D3529FC6C4EF7FBDD8FBDD199F5876)
Полное имя : F:\Видео\Сериалы\Теория большого взрыва\The.Big.Bang.Theory.S02\The.Big.Bang.Theory.S02E01.rus.eng.720p.HDTV.[Kuraj-Bambey.Ru].mkv
Формат : Matroska
Версия формата : Version 1
Размер файла : 618 Мбайт
Продолжительность : 21 м.
Общий поток : 4045 Кбит/сек
Дата кодирования : UTC 2008-10-22 15:22:37
Программа кодирования : mkvmerge v2.2.0 ('Turn It On Again') built on Mar 4 2008 12:58:26
Библиотека кодирования : libebml v0.7.7 + libmatroska v0.8.1
Видео
Идентификатор : 1
Формат : AVC
Формат/Информация : Advanced Video Codec
Профиль формата : [email protected]
Параметр CABAC формата : Да
Параметр ReFrames формата : 3 кадра
Идентификатор кодека : V_MPEG4/ISO/AVC
Продолжительность : 21 м.
Битрейт : 3272 Кбит/сек
Ширина : 1280 пикселей
Высота : 720 пикселей
Соотношение сторон : 16:9
Частота кадров : 23,976 кадра/сек
Цветовое пространство : YUV
Субдискретизация насыщенности : 4:2:0
Битовая глубина : 8 бит
Тип развёртки : Прогрессивная
Бит/(Пиксели*Кадры) : 0.148
Размер потока : 488 Мбайт (79%)
Библиотека кодирования : x264 core 64 r979 6d4af8d
Настройки программы : cabac=1 / ref=3 / deblock=1:-1:0 / analyse=0x3:0x133 / me=hex / subme=6 / psy_rd=1.0:0.0 / brdo=0 / mixed_ref=0 / me_range=16 / chroma_me=1 / trellis=1 / 8x8dct=1 / cqm=0 / deadzone=21,11 / chroma_qp_offset=-2 / threads=6 / nr=0 / decimate=1 / mbaff=0 / bframes=3 / b_pyramid=1 / b_adapt=1 / b_bias=0 / direct=1 / wpredb=1 / bime=1 / keyint=250 / keyint_min=25 / scenecut=40(pre) / rc=2pass / bitrate=3272 / ratetol=1.0 / qcomp=0.60 / qpmin=10 / qpmax=51 / qpstep=4 / cplxblur=20.0 / qblur=0.5 / ip_ratio=1.40 / pb_ratio=1.30 / aq=1:1.00
Язык : English
Default : Да
Forced : Нет
Аудио #1
Идентификатор : 2
Формат : AC-3
Формат/Информация : Audio Coding 3
Расширение режима : CM (complete main)
Идентификатор кодека : A_AC3
Продолжительность : 21 м.
Вид битрейта : Постоянный
Битрейт : 384 Кбит/сек
Каналы : 6 каналов
Расположение каналов : Front: L C R, Side: L R, LFE
Частота : 48,0 КГц
Битовая глубина : 16 бит
Метод сжатия : С потерями
Размер потока : 58,6 Мбайт (9%)
Заголовок : Russian
Язык : Russian
Default : Да
Forced : Нет
Аудио #2
Идентификатор : 3
Формат : AC-3
Формат/Информация : Audio Coding 3
Расширение режима : CM (complete main)
Идентификатор кодека : A_AC3
Продолжительность : 21 м.
Вид битрейта : Постоянный
Битрейт : 384 Кбит/сек
Каналы : 6 каналов
Расположение каналов : Front: L C R, Side: L R, LFE
Частота : 48,0 КГц
Битовая глубина : 16 бит
Метод сжатия : С потерями
Размер потока : 58,6 Мбайт (9%)
Заголовок : English
Язык : English
Default : Нет
Forced : Нет
Текст
Идентификатор : 4
Формат : UTF-8
Идентификатор кодека : S_TEXT/UTF8
Идентификатор кодека/Информация : UTF-8 Plain Text
Заголовок : Russian
Язык : Russian
Default : Да
Forced : Нет
The.Big.Bang.Theory.S02E01.rus.eng.720p.HDTV.[Kuraj-Bambey.Ru].mkv 617.73 MB (647746448)
The.Big.Bang.Theory.S02E02.rus.eng.720p.HDTV.[Kuraj-Bambey.Ru].mkv 616.41 MB (646357142)
The.Big.Bang.Theory.S02E03.rus.eng.720p.HDTV.[Kuraj-Bambey.Ru].mkv 616.31 MB (646254444)
The.Big.Bang.Theory.S02E04.rus.eng.720p.HDTV.[Kuraj-Bambey.Ru].mkv 616.62 MB (646581435)
The.Big.Bang.Theory.S02E05.rus.eng.720p.HDTV.[Kuraj-Bambey.Ru].mkv 612.85 MB (642627688)
The.Big.Bang.Theory.S02E06.rus.eng.720p.HDTV.[Kuraj-Bambey.Ru].mkv 615.52 MB (645427663)
The.Big.Bang.Theory.S02E07.rus.eng.720p.HDTV.[Kuraj-Bambey.Ru].mkv 616.07 MB (646001811)
The.Big.Bang.Theory.S02E08.rus.eng.720p.HDTV.[Kuraj-Bambey.Ru].mkv 613.16 MB (642952464)
The.Big.Bang.Theory.S02E09.rus.eng.720p.HDTV.[Kuraj-Bambey.Ru].mkv 616.04 MB (645968057)
The.Big.Bang.Theory.S02E10.rus.eng.720p.HDTV.[Kuraj-Bambey.Ru].mkv 616.37 MB (646314436)
The.Big.Bang.Theory.S02E11.rus.eng.720p.HDTV.[Kuraj-Bambey.Ru].mkv 615.97 MB (645892064)
The.Big.Bang.Theory.S02E12.rus.eng.720p.HDTV.[Kuraj-Bambey.Ru].mkv 616.63 MB (646588253)
The.Big.Bang.Theory.S02E13.rus.eng.720p.HDTV.[Kuraj-Bambey.Ru].mkv 617.04 MB (647015942)
The.Big.Bang.Theory.S02E14.rus.eng.720p.HDTV.[Kuraj-Bambey.Ru].mkv 617.29 MB (647276489)
The.Big.Bang.Theory.S02E15.rus.eng.720p.HDTV.[Kuraj-Bambey.Ru].mkv 615.24 MB (645134186)
The.Big.Bang.Theory.S02E16.rus.eng.720p.HDTV.[Kuraj-Bambey.Ru].mkv 616.46 MB (646408168)
The.Big.Bang.Theory.S02E17.rus.eng.720p.HDTV.[Kuraj-Bambey.Ru].mkv 616.47 MB (646422239)
The.Big.Bang.Theory.S02E18.rus.eng.720p.HDTV.[Kuraj-Bambey.Ru].mkv 614.29 MB (644138142)
The.Big.Bang.Theory.S02E19.rus.eng.720p.HDTV.[Kuraj-Bambey.Ru].mkv 614.12 MB (643954509)
The.Big.Bang.Theory.S02E20.rus.eng.720p.HDTV.[Kuraj-Bambey.Ru].mkv 613.11 MB (642900875)
The.Big.Bang.Theory.S02E21.rus.eng.720p.HDTV.[Kuraj-Bambey.Ru].mkv 617.12 MB (647097577)
The.Big.Bang.Theory.S02E22.rus.eng.720p.HDTV.[Kuraj-Bambey.Ru].mkv 609.08 MB (638673598)
The.Big.Bang.Theory.S02E23.rus.eng.720p.HDTV.[Kuraj-Bambey.Ru].mkv 616.52 MB (646468452)
Download / Скачать

Хотите скачать бесплатно? Зарегистрируйтесь на сайте (ссылка на регистрацию). Pirat.ca - самый быстрый торрент трекер в рунете!

Как скачивать  ·   Что такое торрент  ·   Рейтинг и ограничения

Пост 25-Ноя-2011 12:40 (спустя 15 часов)

Топик был перенесен из форума Подвал (для восстановления раздач) в форум Зарубежные сериалы

gEmOkPaT
 

demian.dvd

Лоцман

Пост 14-Дек-2011 21:26 (спустя 20 дней)

[Q] 

Раздавать будем?
[Профиль]  [ЛС] 

vincentlow

Лоцман

Пост 04-Янв-2012 14:17 (спустя 20 дней)

[Q] 

скорости скорости!!!
[Профиль]  [ЛС] 

windj

Корсар

73

Пост 16-Янв-2012 19:44 (спустя 12 дней)

[Q] 

Благодарю!

_________________
[Профиль]  [ЛС] 

Strix

Флибустьер

Пост 05-Фев-2012 10:26 (спустя 19 дней)

[Q] 

Спасибо
[Профиль]  [ЛС] 

Alactri

Лоцман

Пост 09-Мар-2012 10:58 (спустя 1 месяц 4 дня)

[Q] 

А кто-то есть на раздаче?
[Профиль]  [ЛС] 

Ramze

Лоцман

Пост 15-Мар-2012 10:26 (спустя 5 дней)

[Q] 

И правда раздача будет или нет?
[Профиль]  [ЛС] 

Ваванчик

Лоцман

Пост 18-Апр-2012 14:49 (спустя 1 месяц 3 дня)

[Q] 

встаньте на раздачю не будьте негодяями!!!
[Профиль]  [ЛС] 

ss80

Флибустьер

36

Пост 14-Сен-2012 20:00 (спустя 4 месяца 26 дней)

[Q] 

[Профиль]  [ЛС] 

enotko

Морской Волк

Пост 04-Дек-2012 10:02 (спустя 2 месяца 19 дней)

[Q] 


На раздачу вернитесь пожаалуйста!
[Профиль]  [ЛС] 

Marinochka

Юнга

Пост 20-Апр-2013 20:39 (спустя 4 месяца 16 дней)

[Q] 

[Профиль]  [ЛС] 

Petrako

Штурман

Пост 20-Апр-2013 23:05 (спустя 2 часа 25 минут)

[Q] 

Последняя серия без перевода!
[Профиль]  [ЛС] 

romushka

Штурман

Пост 31-Дек-2013 18:16 (спустя 8 месяцев 10 дней)

[Q] 

Пасиб, крутейший сериал!!!
[Профиль]  [ЛС] 

holdemkolfild

Штурман

Пост 02-Янв-2014 01:40 (спустя 1 день 7 часов)

[Q] 

встаньте на раздачу, плз!
[Профиль]  [ЛС] 

privet4848

Лоцман

Пост 03-Сен-2014 14:42 (спустя 8 месяцев 1 день)

[Q] 

Оригинальная речь заглушает перевод в первых сериях. Не очень хорошо, когда два голоса говорят на одинаковой громкости. А так перевод от Кураж бамбей классный. Сериал на высоте.)
[Профиль]  [ЛС] 

Dimmi14

Юнга

Пост 25-Фев-2015 17:15 (спустя 5 месяцев 22 дня)

[Q] 

А субтитры от Кураж?
[Профиль]  [ЛС] 
Показать сообщения:    
Ответить на тему

Текущее время: Сегодня 14:50

Часовой пояс: GMT + 4



Вы не можете начинать темы
Вы не можете отвечать на сообщения
Вы не можете редактировать свои сообщения
Вы не можете удалять свои сообщения
Вы не можете голосовать в опросах
Вы не можете прикреплять файлы к сообщениям
Вы не можете скачивать файлы

▼ Вниз