ML
     
  Уважаемый Гость!
Вы можете поддержать проект и зарегистрироваться у наших партнеров - онлайн-стратегия MyLands. При регистрации в игре Вы получите код, который сможете активировать после регистрации на pirat.ca и получить 1000 дублонов.

Ваш код:
a978488e62322cd72e113ab723b8a7fdc10eb9b9
 
     

Ходячие мертвецы / The Walking Dead (сезон 1, серии 1-6 из 6) [Кубик в кубе, LostFilm, NovaFilm, Fox Crime] (Фрэнк Дарабонт / Frank Darabont) [2010г] (драма, ужасы, триллер) [Blu-Ray Rip, 720p] (MVO)

Ответить на тему
 
Автор
Сообщение

Пост 28-Ноя-2011 18:45

[Q] 

tucgiuk

Штурман

Ходячие мертвецы / The Walking Dead
Год выпуска: 2010
Мировая премьера: 31 октября 2010
Российская премьера: 4 ноября 2010
Производство: США, amc
Жанр: драма, ужасы, триллер
Продолжительность: 01:07:04 / 1 серия ~00:45 / 2-6 серии
Перевод: Профессиональный многоголосый (Кубик в кубе, LostFilm, NovaFilm, Fox Crime)
Оригинальный аудиопоток: Английский
Субтитры: английские (SHD), русские (TrueTransLate)
Режиссер: Фрэнк Дарабонт / Frank Darabont
В ролях: Эндрю Линкольн, Джон Бернтал, Сара Уэйн Кэллис, Лори Холден, Джеффри ДеМунн, Стивен Юн, Чендлер Риггз, Норман Ридус, Эмма Белл, Айрон Э. Синглтон
Описание: Сериал рассказывает историю жизни семьи шерифа после того, как «зомби»-эпидемия апокалипсических масштабов захлестнула земной шар. Шериф Рик Грайм путешествует со своей семьей и небольшой группой выживших в поисках безопасного места для жизни. Но постоянный страх смерти каждый день приносит тяжелые потери, заставляя героев почувствовать глубины человеческой жестокости. Рик пытается спасти свою семью, и открывает для себя, что всепоглощающий страх тех, кто выжил, может быть опаснее бессмысленных мертвецов, бродящих по земле.
- Сериал является экранизацией одноименной комикс-серии, которая начала выходить в 2003 году.
- Одним из продюсеров сериала является Роберт Киркман - автор (сценарист) комикса.
- Первую серию «The Walking Dead» посмотрели 5.3 млн. зрителей. Показ стал самым рейтинговым в истории телеканала АМС.

Источник/Качество: Blu-Ray Rip
Формат: MKV
Стандарт разрешения: 720p
Видео кодек: H.26x
Аудио кодек: AC3
Видео: 1280x720, 23.976 fps, ~7,3 Mbps, 0.357 bit/pixel (CHD)
Аудио #1: AC3 2.0, 48 KHz, 192 kbps |Кубик в Кубе|
Аудио #2: AC3 2.0, 48 KHz, 192 kbps |LostFilm|
Аудио #3: AC3 2.0, 48 KHz, 192 kbps |NovaFilm|
Аудио #4: AC3 2.0, 48 KHz, 192 kbps |Fox Crime|
Аудио #5: AC3 5.1, 48 KHz, 640 kbps |Оригинальная дорожка|
Формат : Matroska
Версия формата : Version 1
Размер файла : 4,36 Гбайт
Продолжительность : 1 ч. 7 м.
Общий поток : 9311 Кбит/сек
Название фильма : Release by uxTuaHgp
Дата кодирования : UTC 2011-02-27 09:26:10
Программа кодирования : mkvmerge v2.5.3 ('Boogie') built on Mar 7 2009 15:00:41
Библиотека кодирования : libebml v0.7.7 + libmatroska v0.8.1
Видео
Идентификатор : 1
Формат : AVC
Формат/Информация : Advanced Video Codec
Профиль формата : [email protected]
Параметр CABAC формата : Да
Параметр ReFrames формата : 9 кадров
Идентификатор кодека : V_MPEG4/ISO/AVC
Продолжительность : 1 ч. 7 м.
Битрейт : 7899 Кбит/сек
Ширина : 1280 пикселей
Высота : 720 пикселей
Соотношение сторон : 16:9
Частота кадров : 23,976 кадра/сек
Цветовое пространство : YUV
Субдискретизация насыщенности : 4:2:0
Битовая глубина : 8 бит
Тип развёртки : Прогрессивная
Бит/(Пиксели*Кадры) : 0.357
Размер потока : 3,62 Гбайт (83%)
Заголовок : The Walking Dead S01 E01 Days Gone Bye
Библиотека кодирования : x264 core 107 r1766 f9f0035
Настройки программы : cabac=1 / ref=9 / deblock=1:-3:-3 / analyse=0x3:0x113 / me=umh / subme=10 / psy=1 / psy_rd=1.05:0.00 / mixed_ref=1 / me_range=48 / chroma_me=1 / trellis=2 / 8x8dct=1 / cqm=2 / deadzone=21,11 / fast_pskip=0 / chroma_qp_offset=-1 / threads=12 / sliced_threads=0 / nr=0 / decimate=1 / interlaced=0 / constrained_intra=0 / bframes=6 / b_pyramid=2 / b_adapt=2 / b_bias=0 / direct=3 / weightb=1 / open_gop=0 / weightp=2 / keyint=250 / keyint_min=23 / scenecut=40 / intra_refresh=0 / rc_lookahead=50 / rc=2pass / mbtree=1 / bitrate=7899 / ratetol=1.0 / qcomp=0.60 / qpmin=10 / qpmax=51 / qpstep=4 / cplxblur=20.0 / qblur=0.5 / vbv_maxrate=50000 / vbv_bufsize=50000 / ip_ratio=1.40 / aq=1:0.80 / nal_hrd=none
Язык : English
Default : Да
Forced : Нет
Аудио #1
Идентификатор : 2
Формат : AC-3
Формат/Информация : Audio Coding 3
Расширение режима : CM (complete main)
Идентификатор кодека : A_AC3
Продолжительность : 1 ч. 7 м.
Вид битрейта : Постоянный
Битрейт : 192 Кбит/сек
Каналы : 2 канала
Расположение каналов : Front: L R
Частота : 48,0 КГц
Битовая глубина : 16 бит
Метод сжатия : С потерями
Размер потока : 92,1 Мбайт (2%)
Заголовок : AC3 2.0 @ 192 kbps [Кубик в Кубе]
Язык : Russian
Default : Да
Forced : Нет
Аудио #2
Идентификатор : 3
Формат : AC-3
Формат/Информация : Audio Coding 3
Расширение режима : CM (complete main)
Идентификатор кодека : A_AC3
Продолжительность : 1 ч. 7 м.
Вид битрейта : Постоянный
Битрейт : 192 Кбит/сек
Каналы : 2 канала
Расположение каналов : Front: L R
Частота : 48,0 КГц
Битовая глубина : 16 бит
Метод сжатия : С потерями
Размер потока : 92,1 Мбайт (2%)
Заголовок : AC3 2.0 @ 192 kbps [LostFilm]
Язык : Russian
Default : Нет
Forced : Нет
Аудио #3
Идентификатор : 4
Формат : AC-3
Формат/Информация : Audio Coding 3
Расширение режима : CM (complete main)
Идентификатор кодека : A_AC3
Продолжительность : 1 ч. 7 м.
Вид битрейта : Постоянный
Битрейт : 192 Кбит/сек
Каналы : 2 канала
Расположение каналов : Front: L R
Частота : 48,0 КГц
Битовая глубина : 16 бит
Метод сжатия : С потерями
Размер потока : 92,1 Мбайт (2%)
Заголовок : AC3 2.0 @ 192 kbps [NovaFilm]
Язык : Russian
Default : Нет
Forced : Нет
Аудио #4
Идентификатор : 5
Формат : AC-3
Формат/Информация : Audio Coding 3
Расширение режима : CM (complete main)
Идентификатор кодека : A_AC3
Продолжительность : 1 ч. 7 м.
Вид битрейта : Постоянный
Битрейт : 192 Кбит/сек
Каналы : 2 канала
Расположение каналов : Front: L R
Частота : 48,0 КГц
Битовая глубина : 16 бит
Метод сжатия : С потерями
Размер потока : 92,1 Мбайт (2%)
Заголовок : AC3 2.0 @ 192 kbps [Fox Crime]
Язык : Russian
Default : Нет
Forced : Нет
Аудио #5
Идентификатор : 6
Формат : AC-3
Формат/Информация : Audio Coding 3
Расширение режима : CM (complete main)
Идентификатор кодека : A_AC3
Продолжительность : 1 ч. 7 м.
Вид битрейта : Постоянный
Битрейт : 640 Кбит/сек
Каналы : 6 каналов
Расположение каналов : Front: L C R, Side: L R, LFE
Частота : 48,0 КГц
Битовая глубина : 16 бит
Метод сжатия : С потерями
Размер потока : 307 Мбайт (7%)
Заголовок : AC3 5.1 @ 640 kbps
Язык : English
Default : Нет
Forced : Нет
Текст #1
Идентификатор : 7
Формат : UTF-8
Идентификатор кодека : S_TEXT/UTF8
Идентификатор кодека/Информация : UTF-8 Plain Text
Язык : English
Default : Нет
Forced : Нет
Текст #2
Идентификатор : 8
Формат : UTF-8
Идентификатор кодека : S_TEXT/UTF8
Идентификатор кодека/Информация : UTF-8 Plain Text
Язык : Russian
Default : Нет
Forced : Нет
1. Ушедшие дни
2. Кишки
3. Скажи это лягушкам
4. Братки
5. Пожар
6. ТС-19





Download / Скачать

Хотите скачать бесплатно? Зарегистрируйтесь на сайте (ссылка на регистрацию). Pirat.ca - самый быстрый торрент трекер в рунете!

Как скачивать  ·   Что такое торрент  ·   Рейтинг и ограничения



Последний раз редактировалось: tucgiuk (2011-12-02 15:32), всего редактировалось 1 раз

Пост 29-Ноя-2011 13:38 (спустя 18 часов)

Топик был перенесен из форума Сериалы в форум Зарубежные сериалы

gEmOkPaT
 

tucgiuk ®

Штурман

144

Пост 02-Дек-2011 15:31 (спустя 3 дня)

[Q] 

1й сезон мне понравился, а вот со вторым что то не заладилось...
после первого эпизода 2 сезона только 7й эпизод зацепил )
это я так, поделился впечатлениями
[Профиль]  [ЛС] 

rusty_springs

Шкипер

Пост 22-Дек-2011 11:30 (спустя 19 дней)

[Q] 

народ, встаньте на раздачу. до конца жизни не скачать.
[Профиль]  [ЛС] 

tucgiuk ®

Штурман

144

Пост 24-Дек-2011 23:23 (спустя 2 дня 11 часов)

[Q] 

почти каждый вечер
[Профиль]  [ЛС] 

rusty_springs

Шкипер

Пост 25-Дек-2011 20:23 (спустя 20 часов)

[Q] 

спасибо. посмотрел за один присест. понравилось. второй сезон смотрел онлайн, уныло, затянуто, ни о чем. огорчился(((
[Профиль]  [ЛС] 

tucgiuk ®

Штурман

144

Пост 25-Дек-2011 21:31 (спустя 1 час 8 минут)

[Q] 

последняя серия порадовала, если будет в этом же духе - думаю имеет место быть )
[Профиль]  [ЛС] 

rusty_springs

Шкипер

Пост 26-Дек-2011 08:51 (спустя 11 часов)

[Q] 

в последней серии просто хоть какая-то движуха началась. наконец-то Софьюшку нашли и пристрелили))). в первом сезоне каждая серия была практически как самостоятельный фильм. по ходу бюджет урезали.
[Профиль]  [ЛС] 

tekarukite

Лоцман

Пост 23-Янв-2012 01:05 (спустя 27 дней)

[Q] 

дайте скачать и буду раздавать.......
[Профиль]  [ЛС] 

Tuzeride

Морской Волк

671

Пост 26-Мар-2012 17:20 (спустя 2 месяца 3 дня)

[Q] 

норм хоррор. тока странно что не по сюжету сняли..
[Профиль]  [ЛС] 

Klanstapet

Штурман

Пост 07-Июл-2012 23:10 (спустя 3 месяца 12 дней)

[Q] 

Спасибо за раздачу!!!! лишь бы скорость была. скачаю останусь на раздаче!!!!
[Профиль]  [ЛС] 

il4000

Лоцман

Пост 04-Окт-2012 00:44 (спустя 2 месяца 27 дней)

[Q] 

Дайте скорости плиз!
[Профиль]  [ЛС] 

Mitt

Штурман

Пост 21-Ноя-2012 22:50 (спустя 1 месяц 17 дней)

[Q] 

Где скорость!?!?!?!?!?!?
[Профиль]  [ЛС] 

Shustrick

Штурман

8

Пост 02-Фев-2013 12:25 (спустя 2 месяца 10 дней)

[Q] 

Ребята встаньте пожалуйста на раздачу.

_________________
Жизнь прекрасная шутка ...)
[Профиль]  [ЛС] 

vladi

Лоцман

Пост 09-Апр-2013 19:58 (спустя 2 месяца 7 дней)

[Q] 

Спасибо!!!!!! То что искал) обожаю эту тему.....
[Профиль]  [ЛС] 

maulik

Шкипер

Пост 28-Май-2013 14:09 (спустя 1 месяц 18 дней)

[Q] 

[Профиль]  [ЛС] 

Mr.Blonde

Лоцман

Пост 03-Дек-2013 20:32 (спустя 6 месяцев 6 дней)

[Q] 

Дайте скачать.
[Профиль]  [ЛС] 

Joseph

Лоцман

Пост 28-Дек-2013 14:31 (спустя 24 дня)

[Q] 

Что-то серий маловато для целого сезона
[Профиль]  [ЛС] 

Gastrobayter

Штурман

Пост 19-Фев-2014 00:07 (спустя 1 месяц 21 день)

[Q] 

!COOL!

_________________
...Объективная реальность - это бред,
вызванный недостатком алкоголя в крови.
[Профиль]  [ЛС] 
Показать сообщения:    
Ответить на тему

Текущее время: Сегодня 22:08

Часовой пояс: GMT + 4



Вы не можете начинать темы
Вы не можете отвечать на сообщения
Вы не можете редактировать свои сообщения
Вы не можете удалять свои сообщения
Вы не можете голосовать в опросах
Вы не можете прикреплять файлы к сообщениям
Вы не можете скачивать файлы

▼ Вниз