ML
     
  Уважаемый Гость!
Вы можете поддержать проект и зарегистрироваться у наших партнеров - онлайн-стратегия MyLands. При регистрации в игре Вы получите код, который сможете активировать после регистрации на pirat.ca и получить 1000 дублонов.

Ваш код:
fcd618d94adc1456bccbde5047c9cd0930e4ae4d
 
     

Грошовые Ужасы / Страшные сказки / Penny Dreadful / Сезон: 2 / Полный / Серии: 10 из 10 (Хуан Антонио Байона / Juan Antonio Bayona, ...) [2015 г., ужасы, драма, HDTVRip] MVO (AlexFilm) + Original (Eng)

Ответить на тему
 
Автор
Сообщение

Пост 27-Мар-2012 16:59

[Q] 

kugesan

-Грошовые Ужасы / Страшные сказки / Penny Dreadful
«There is some thing within us all»
-- Производство: США, Ирландия, Великобритания
Жанр: ужасы, драма
Год выпуска: 2015 г.-Мировая премьера: 11 мая 2014
Российская премьера: 12 мая 2014-Озвучка: Студия
Перевод: Многоголосый закадровый, профессиональный
Оригинальный аудиопоток: английский-Автор перевода: Константин Кривоногов
Роли озвучивали: Татьяна Манетина, Владимир Курдов, Михаил Суслов, Сергей Пономарёв, Владислав Данилов
Монтаж и сведение звука: Сергей Мартынов
Постер: Андрей Шапал-Режиссер: Хуан Антонио Байона / Juan Antonio Bayona, Коки Гидройч / Coky Giedroyc, Джеймс Хоуз / James Hawes, ...-В ролях: Тимоти Далтон, Ева Грин, Джош Хартнетт, Рори Киннер, Хелен МакКрори, Билли Пайпер, Гарри Тредэвэй, Рив Карни, Алан Армстронг, Рик Берн ...-Описание:
Викторианский Лондон. Здесь никогда не было безопасности и спокойствия. Горожане заняты исключительно повседневными делами, не замечая признаков грядущих изменений. Однако им следовало бы стать повнимательней, потому что на улицах британской столицы собирается нечисть самого разного толка, способная навести ужас на кого угодно. Со многими из представителей этой нечисти вы давно знакомы: тут вам и демонический юноша Дориан Грей из романа Оскара Уайльда, и многомудрый доктор Джекил вместе со своим альтер-эго мистером Хайдом, и немец Франкенштейн «под ручку» со своим чудовищным творением, и жаждущий крови великолепный граф Дракула из Трансильвании, а также его подручные-вампиры и другие, не менее зловещие сущности.
Начиная охоту за человеческими телами и душами, все они делят Лондон между собой. Люди боятся выходить из домов, а тёмные негодяи попросту развлекаются, не раздумывая о том, что рано или поздно должна прийти расплата за все их злодеяния. И вот об этой беде узнают охотники, всю свою жизнь посвятившие борьбе с нечистью. В числе положительных персонажей, разумеется, отметится и сам Ван Хельсинг.
Но и без главного персонажа сюжет не обходится. Им стал одиночка, приехавший из Америки — Итан Чэндлер. Его угораздило угодить в ловушку коварных вампиров и стать одержимым дьявольской красотой загадочной женщины-медиума Ванессы Айвз. В итоге жанр шоу определяется его авторами как «психосексуальный хоррор», а это звучит как нечто доселе совершенно неизвестное, новое и очень интересное.-Сезон: 2
Серии: 10 из 10 серий
Продолжительность: ~ 00:55:00 мин серия-
Качество видео: HDTVRip
Контейнер: AVI
Видео кодек: XviD
Аудио кодек: MP3
Видео: MPEG-4 Visual at 1395 Кбит/сек: 720 x 400 (1.800) at 23.976 fps: 0.20 Бит/Пиксели
Аудио Rus: MPEG Audio at 128 Кбит/сек, 2 канала, 48,0 КГц |AlexFilm|
Аудио Eng: MPEG Audio at 128 Кбит/сек, 2 канала, 48,0 КГц |Original|
Cубтитры: отсутствуют
- -
  • Новый ад (Fresh Hell)
  • Язык Дьявола (Verbis Diablo)
  • Приходящие в ночи (The Nightcomers)
  • Духи злобы поднебесной (Evil Spirits in Heavenly Places)
  • Внизу трава – и небо надо мной (Above the Vaulted Sky)
  • Великие ужасы (Glorious Horrors)
  • Маленький скорпион (Little Scorpion)
  • Помни о смерти (Memento Mori)
  • И только сам Ад мой враг (And Hell Itself My Only Foe)
  • И они были врагами (And They Were Enemies)
-
Общее
Полное имя : E:\_Сериалы\_Сериалы\Бульварные ужасы\Penny Dreadful - Season 2 (AlexFilm) HDTVRip\Penny.Dreadful.s02e01.HDTVRip.Rus.Eng.AlexFilm.avi
Формат : AVI
Формат/Информация : Audio Video Interleave
Размер файла : 653 Мбайт
Продолжительность : 54 м.
Общий поток : 1665 Кбит/сек
Название фильма : Penny Dreadful 2x01 @ AlexFilm
Программа кодирования : VirtualDubMod 1.5.10.2 (build 2540/release)
Библиотека кодирования : VirtualDubMod build 2540/release
Видео
Идентификатор : 0
Формат : MPEG-4 Visual
Профиль формата : Advanced [email protected]
Параметр BVOP формата : Нет
Параметр QPel формата : Нет
Параметр GMC формата : Без точки перехода
Параметр матрицы формата : Default (H.263)
Идентификатор кодека : XVID
Идентификатор кодека/Подсказка : XviD
Продолжительность : 54 м.
Битрейт : 1395 Кбит/сек
Ширина : 720 пикселей
Высота : 400 пикселей
Соотношение сторон : 16:9
Частота кадров : 23,976 кадра/сек
Цветовое пространство : YUV
Субдискретизация насыщенности : 4:2:0
Битовая глубина : 8 бит
Тип развёртки : Прогрессивная
Метод сжатия : С потерями
Бит/(Пиксели*Кадры) : 0.202
Размер потока : 547 Мбайт (84%)
Библиотека кодирования : XviD 73
Аудио #1
Идентификатор : 1
Формат : MPEG Audio
Версия формата : Version 1
Профиль формата : Layer 3
Режим : Joint stereo
Расширение режима : MS Stereo
Идентификатор кодека : 55
Идентификатор кодека/Подсказка : MP3
Продолжительность : 54 м.
Вид битрейта : Постоянный
Битрейт : 128 Кбит/сек
Каналы : 2 канала
Частота : 48,0 КГц
Метод сжатия : С потерями
Размер потока : 50,2 Мбайт (8%)
Выравнивание : Соединение по промежуткам
Продолжительность промежутка : 42 мс. (1,00 видеокадр)
Время предзагрузки промежутка : 504 мс.
Заголовок : Russian (AlexFilm)
Аудио #2
Идентификатор : 2
Формат : MPEG Audio
Версия формата : Version 1
Профиль формата : Layer 3
Режим : Joint stereo
Расширение режима : MS Stereo
Идентификатор кодека : 55
Идентификатор кодека/Подсказка : MP3
Продолжительность : 54 м.
Вид битрейта : Постоянный
Битрейт : 128 Кбит/сек
Каналы : 2 канала
Частота : 48,0 КГц
Метод сжатия : С потерями
Размер потока : 50,2 Мбайт (8%)
Выравнивание : Соединение по промежуткам
Продолжительность промежутка : 42 мс. (1,00 видеокадр)
Время предзагрузки промежутка : 504 мс.
Заголовок : English
-
-Скриншоты:
-
-
1. Открыть торрент
2. Снять галки с тех файлов торрента, которые мы не хотим закачивать. Оставляем только на нужных нам файлах (файле).
3. Нажать О.К.
В клиенте utorrent
Инструкция
1) Открыть торрент

2) Снять галки с тех файлов торрента, которые мы не хотим закачивать:
* либо вручную, снимая с каждого файла галку( скрин №1)
* либо, нажав кнопку "Снять метки (Select None)", сняв сразу со всех файлов(скрин №2)
№1

№2

Оставляем только на нужных нам файлах (файле).

3)Нажать О.К
Добавлена десятая, заключительная, серия второго сезона
Download / Скачать

Хотите скачать бесплатно? Зарегистрируйтесь на сайте (ссылка на регистрацию). Pirat.ca - самый быстрый торрент трекер в рунете!

Как скачивать  ·   Что такое торрент  ·   Рейтинг и ограничения



Последний раз редактировалось: kugesan (2015-07-07 13:20), всего редактировалось 35 раз(а)

Opium

Шкипер

Пост 24-Апр-2015 00:11 (спустя 3 года)

[Q] 

Спасибо! Прекрасный сериал!
[Профиль]  [ЛС] 

DenisLS

Шкипер

Пост 24-Май-2015 08:08 (спустя 1 месяц)

[Q] 

а вот и продолженице Автору респект!!!

_________________
[Профиль]  [ЛС] 

spidercola86

3254

Пост 29-Май-2015 15:09 (спустя 5 дней)

[Q] 

Спасибо!!! Автору респект!!!
[Профиль]  [ЛС] 

kugesan ®

56710

Пост 07-Июл-2015 13:21 (спустя 1 месяц 8 дней)

[Q] 

Добавлена десятая, заключительная, серия второго сезона

_________________

В мире две бесконечности: вселенная и человеческая глупость - Альберт Эйнштен
«Можно вытащить человека из грязи, но нельзя вытащить грязь из человека»!
[Профиль]  [ЛС] 

Пост 07-Июл-2015 18:46 (спустя 5 часов)

Топик был перенесен из форума Сериалы в эфире в форум Зарубежные сериалы
Андря
 
Показать сообщения:    
Ответить на тему

Текущее время: Сегодня 12:48

Часовой пояс: GMT + 4



Вы не можете начинать темы
Вы не можете отвечать на сообщения
Вы не можете редактировать свои сообщения
Вы не можете удалять свои сообщения
Вы не можете голосовать в опросах
Вы не можете прикреплять файлы к сообщениям
Вы не можете скачивать файлы

▼ Вниз