ML
     
  Уважаемый Гость!
Вы можете поддержать проект и зарегистрироваться у наших партнеров - онлайн-стратегия MyLands. При регистрации в игре Вы получите код, который сможете активировать после регистрации на pirat.ca и получить 1000 дублонов.

Ваш код:
0fcd44bd35319f69313aa6e53b31c51cbff1c942
 
     

Грошовые Ужасы / Страшные сказки / Penny Dreadful / Сезон: 2 / Полный / Серии: 10 из 10 (Хуан Антонио Байона / Juan Antonio Bayona, ...) [2015 г., ужасы, драма, HDTVRip] MVO (NewStudio) + Original (Eng)

Ответить на тему
 
Автор
Сообщение

Пост 27-Мар-2012 20:24

[Q] 

kugesan

-Грошовые Ужасы / Страшные сказки / Penny Dreadful
«There is some thing within us all»
-- Производство: США, Ирландия, Великобритания
Жанр: ужасы, драма
Год выпуска: 2015 г.-Мировая премьера: 11 мая 2014
Российская премьера: 12 мая 2014-Озвучка: Студия |NewStudio|
Перевод: Многоголосый закадровый, профессиональный
Оригинальный аудиопоток: английский-Перевод: Александра Цернант
Постер: Андрей Шапал-Режиссер: Хуан Антонио Байона / Juan Antonio Bayona, Коки Гидройч / Coky Giedroyc, Джеймс Хоуз / James Hawes, ...-В ролях: Тимоти Далтон, Ева Грин, Джош Хартнетт, Рори Киннер, Хелен МакКрори, Билли Пайпер, Гарри Тредэвэй, Рив Карни, Алан Армстронг, Рик Берн ...-Описание:
Викторианский Лондон. Здесь никогда не было безопасности и спокойствия. Горожане заняты исключительно повседневными делами, не замечая признаков грядущих изменений. Однако им следовало бы стать повнимательней, потому что на улицах британской столицы собирается нечисть самого разного толка, способная навести ужас на кого угодно. Со многими из представителей этой нечисти вы давно знакомы: тут вам и демонический юноша Дориан Грей из романа Оскара Уайльда, и многомудрый доктор Джекил вместе со своим альтер-эго мистером Хайдом, и немец Франкенштейн «под ручку» со своим чудовищным творением, и жаждущий крови великолепный граф Дракула из Трансильвании, а также его подручные-вампиры и другие, не менее зловещие сущности.
Начиная охоту за человеческими телами и душами, все они делят Лондон между собой. Люди боятся выходить из домов, а тёмные негодяи попросту развлекаются, не раздумывая о том, что рано или поздно должна прийти расплата за все их злодеяния. И вот об этой беде узнают охотники, всю свою жизнь посвятившие борьбе с нечистью. В числе положительных персонажей, разумеется, отметится и сам Ван Хельсинг.
Но и без главного персонажа сюжет не обходится. Им стал одиночка, приехавший из Америки — Итан Чэндлер. Его угораздило угодить в ловушку коварных вампиров и стать одержимым дьявольской красотой загадочной женщины-медиума Ванессы Айвз. В итоге жанр шоу определяется его авторами как «психосексуальный хоррор», а это звучит как нечто доселе совершенно неизвестное, новое и очень интересное.-Сезон: 2
Серии: 10 из 10 серий
Продолжительность: ~ 00:55:00 мин серия-
Качество видео: HDTVRip
Контейнер: AVI
Видео кодек: XviD
Аудио кодек: MP3
Видео: MPEG-4 Visual at 1509 Кбит/сек: 720 x 400 (1.800) at 23.976 fps: 0.22 Бит/Пиксели
Аудио Rus: MPEG Audio at 128 Кбит/сек, 2 канала, 48,0 КГц |NewStudio|
Аудио Eng: MPEG Audio at 128 Кбит/сек, 2 канала, 48,0 КГц |Original|
Cубтитры: отсутствуют
- -
  • Новый ад (Fresh Hell)
  • Язык Дьявола (Verbis Diablo)
  • Дети Ночи (The Nightcomers)
  • Духи злобы поднебесной (Evil Spirits in Heavenly Places)
  • Выше свода небес (Above the Vaulted Sky)
  • Знаменитые ужасы (Glorious Horrors)
  • Маленький скорпион (Little Scorpion)
  • Помни о смерти (Memento Mori)
  • Мой единственный враг — сам Ад (And Hell Itself My Only Foe)
  • И они были врагами (And They Were Enemies)
-
Общее
Полное имя : E:\_Сериалы\_Сериалы\Бульварные ужасы\Penny.Dreadful.S02.HDTVRip.NewStudio.TV\Penny.Dreadful.S02E01.HDTVRip.NewStudio.TV.avi
Формат : AVI
Формат/Информация : Audio Video Interleave
Размер файла : 700 Мбайт
Продолжительность : 55 м.
Общий поток : 1779 Кбит/сек
Программа кодирования : VirtualDubMod 1.5.10.2 (build 2540/release)
Библиотека кодирования : VirtualDubMod build 2540/release
Видео
Идентификатор : 0
Формат : MPEG-4 Visual
Профиль формата : Advanced [email protected]
Параметр BVOP формата : 2
Параметр QPel формата : Нет
Параметр GMC формата : Без точки перехода
Параметр матрицы формата : Default (MPEG)
Идентификатор кодека : XVID
Идентификатор кодека/Подсказка : XviD
Продолжительность : 55 м.
Битрейт : 1509 Кбит/сек
Ширина : 720 пикселей
Высота : 400 пикселей
Соотношение сторон : 16:9
Частота кадров : 23,976 кадра/сек
Цветовое пространство : YUV
Субдискретизация насыщенности : 4:2:0
Битовая глубина : 8 бит
Тип развёртки : Прогрессивная
Метод сжатия : С потерями
Бит/(Пиксели*Кадры) : 0.218
Размер потока : 594 Мбайт (85%)
Библиотека кодирования : XviD 64
Аудио #1
Идентификатор : 1
Формат : MPEG Audio
Версия формата : Version 1
Профиль формата : Layer 3
Режим : Joint stereo
Идентификатор кодека : 55
Идентификатор кодека/Подсказка : MP3
Продолжительность : 55 м.
Вид битрейта : Постоянный
Битрейт : 128 Кбит/сек
Каналы : 2 канала
Частота : 48,0 КГц
Метод сжатия : С потерями
Размер потока : 50,4 Мбайт (7%)
Выравнивание : Соединение по промежуткам
Продолжительность промежутка : 42 мс. (1,00 видеокадр)
Время предзагрузки промежутка : 504 мс.
Библиотека кодирования : LAME3.99r
Настройки программы : -m j -V 4 -q 2 -lowpass 17 -b 128
Аудио #2
Идентификатор : 2
Формат : MPEG Audio
Версия формата : Version 1
Профиль формата : Layer 3
Режим : Joint stereo
Идентификатор кодека : 55
Идентификатор кодека/Подсказка : MP3
Продолжительность : 55 м.
Вид битрейта : Постоянный
Битрейт : 128 Кбит/сек
Каналы : 2 канала
Частота : 48,0 КГц
Метод сжатия : С потерями
Размер потока : 50,4 Мбайт (7%)
Выравнивание : Соединение по промежуткам
Продолжительность промежутка : 42 мс. (1,00 видеокадр)
Время предзагрузки промежутка : 504 мс.
Библиотека кодирования : LAME3.99r
Настройки программы : -m j -V 4 -q 2 -lowpass 17 -b 128
-
-Скриншоты:
-
-
1. Открыть торрент
2. Снять галки с тех файлов торрента, которые мы не хотим закачивать. Оставляем только на нужных нам файлах (файле).
3. Нажать О.К.
В клиенте utorrent
Инструкция
1) Открыть торрент

2) Снять галки с тех файлов торрента, которые мы не хотим закачивать:
* либо вручную, снимая с каждого файла галку( скрин №1)
* либо, нажав кнопку "Снять метки (Select None)", сняв сразу со всех файлов(скрин №2)
№1

№2

Оставляем только на нужных нам файлах (файле).

3)Нажать О.К
Добавлена десятая, заключительная, серия второго сезона
Download / Скачать

Хотите скачать бесплатно? Зарегистрируйтесь на сайте (ссылка на регистрацию). Pirat.ca - самый быстрый торрент трекер в рунете!

Как скачивать  ·   Что такое торрент  ·   Рейтинг и ограничения



Последний раз редактировалось: kugesan (2015-07-07 00:07), всего редактировалось 28 раз(а)

CHARLI2236

1096

Пост 25-Июл-2013 18:20 (спустя 1 год 3 месяца)

[Q] 

1

_________________
[Профиль]  [ЛС] 

DocSoft

Гроза морей

71

Пост 22-Апр-2015 21:52 (спустя 1 год 8 месяцев)

[Q] 

Второй сезон Явно интереснее. Хотя это легендарные сказки )

_________________
Всего одна Любовь !
[Профиль]  [ЛС] 

kugesan ®

56676

Пост 20-Май-2015 13:02 (спустя 27 дней)

[Q] 

Добавлена третья серия второго сезона

_________________

В мире две бесконечности: вселенная и человеческая глупость - Альберт Эйнштен
«Можно вытащить человека из грязи, но нельзя вытащить грязь из человека»!
[Профиль]  [ЛС] 

Opium

Шкипер

Пост 21-Май-2015 00:19 (спустя 11 часов)

[Q] 

Ни кого нет на раздаче? Че-то не качается(((
[Профиль]  [ЛС] 

jenya-kopew

Корсар

Пост 01-Июн-2015 19:10 (спустя 11 дней)

[Q] 

дайте докачать!!!!
[Профиль]  [ЛС] 

kugesan ®

56676

Пост 02-Июн-2015 00:02 (спустя 4 часа)

[Q] 

jenya-kopew, Завтра, дружище, завтра!!!

_________________

В мире две бесконечности: вселенная и человеческая глупость - Альберт Эйнштен
«Можно вытащить человека из грязи, но нельзя вытащить грязь из человека»!
[Профиль]  [ЛС] 

Opium

Шкипер

Пост 03-Июн-2015 19:19 (спустя 1 день 19 часов)

[Q] 

Блин, я не пойму, почему в первом сезоне во время спиритического сеанса в доме искуствоведа, Мисс Айвз не узнала ведьму-медиума, ведь, они встречались ранее как оказалось (3 серия второго сезона)???
[Профиль]  [ЛС] 

kugesan ®

56676

Пост 23-Июн-2015 15:33 (спустя 19 дней)

[Q] 

Добавлена восьмая серия второго сезона

_________________

В мире две бесконечности: вселенная и человеческая глупость - Альберт Эйнштен
«Можно вытащить человека из грязи, но нельзя вытащить грязь из человека»!
[Профиль]  [ЛС] 

Пост 07-Авг-2015 00:36 (спустя 1 месяц 13 дней)

Топик был перенесен из форума Сериалы в эфире в форум Зарубежные сериалы
Андря
 
Показать сообщения:    
Ответить на тему

Текущее время: Сегодня 02:07

Часовой пояс: GMT + 4



Вы не можете начинать темы
Вы не можете отвечать на сообщения
Вы не можете редактировать свои сообщения
Вы не можете удалять свои сообщения
Вы не можете голосовать в опросах
Вы не можете прикреплять файлы к сообщениям
Вы не можете скачивать файлы

▼ Вниз