ML
     
  Уважаемый Гость!
Вы можете поддержать проект и зарегистрироваться у наших партнеров - онлайн-стратегия MyLands. При регистрации в игре Вы получите код, который сможете активировать после регистрации на pirat.ca и получить 1000 дублонов.

Ваш код:
a978488e62322cd72e113ab723b8a7fdc10eb9b9
 
     

Воскрешение / Resurrection / Сезон: 1 / Полный / Серии: 1-8 из 8 (Дэниэл Эттиэс / Daniel Attias, ...) [2014 г., фэнтези, драма, ..., WEB-DL 720p] DUB (Невафильм) + Original (Eng)

Ответить на тему
 
Автор
Сообщение

Пост 27-Мар-2012 20:26

[Q] 

kugesan

-Воскрешение / Resurrection«What if someone you lost...returned?»-- Страна: США
Жанр: фэнтези, драма, ...
Год выпуска: 2014 г.-Мировая премьера: 9 марта 2014-Подготовка релиза: Студия
Перевод: Профессиональный (полное дублирование)
Оригинальный аудиопоток: английский-Режиссер: Дэниэл Эттиэс / Daniel Attias, Крис Мисиано / Chris Misiano, Кевин Даулинг / Kevin Dowling, ...-В ролях: Самира Армстронг, Мэтт Крэвен, Омар Эппс, Фрэнсис Фишер, Лэндон Хименес, Сэм Хэзелдайн, Марк Хилдрет, Кертвуд Смит, Трэвис Янг, Кевин Сайзмор, Тэмлин Томита, Эйприл Биллингсли, Майкл Хардинг, Джейсон Сосьер, Гари Викс ...-Описание:
Люди, живущие в маленьком городке сталкиваются с очень необычным явлением: их родные и близкие вновь возвращаются после своей смерти. Среди таких возвратившихся оказывается и маленький восьмилетний мальчик, который утонул еще три десятка лет назад. Его обнаружили в Китае, после чего иммиграционная служба вернула его домой. Каково же было удивление местного шерифа, жена которого утонула. Именно ее и пытался спасти этот самый мальчик. В чем же кроется отгадка этой мистической истории?-Сезон: 1
Серии: 8 из 8 серий
Продолжительность: ~ 00:41:00 мин серия-
Качество видео: WEB-DL 720р
Формат: MKV
Видеокодек: AVC ([email protected])
Аудиокодек: AC-3
Видео: AVC at 4237 Кбит/сек: 1280 x 720 (1.778) at 25.000 fps, 0.18 Бит/Пиксели
Аудио Rus: AC-3 at 192 Кбит/сек: 2 канала, 48,0 КГц |Невафильм|
Аудио Eng: AC-3 at 384 Кбит/сек: 6 каналов, 48,0 КГц |Original|
Cубтитры: отсутствуют
- -
  • Возвращение (The Returned)
  • Вырыть (Unearth)
  • Две реки (Two Rivers)
  • Вместе против всего мира (Us Against the World)
  • Бессонница (Insomnia)
  • Дом (Home)
  • Происки Дьявола (Schemes Of the Devil)
  • Разорванный (Torn Apart)
-
Общее
Уникальный идентификатор : 229829124836152917946175019902350628500 (0xACE77AB76E2F3CA6AB552F79BEE39694)
Полное имя : E:\_Сериалы\_Сериалы\Воскрешение\Resurrection.S01.WEB-DL.720p.AlexFilm.TV\Resurrection.S01E01.WEB-DL.720p.AlexFilm.TV.mkv
Формат : Matroska
Версия формата : Version 4 / Version 2
Размер файла : 1,42 Гбайт
Продолжительность : 41 м.
Общий поток : 4911 Кбит/сек
Дата кодирования : UTC 2015-04-18 17:16:58
Программа кодирования : mkvmerge v7.7.0 ('Six Voices') 64bit built on Feb 28 2015 23:39:33
Библиотека кодирования : libebml v1.3.1 + libmatroska v1.4.2
Видео
Идентификатор : 1
Формат : AVC
Формат/Информация : Advanced Video Codec
Профиль формата : [email protected]
Параметр CABAC формата : Нет
Параметр ReFrames формата : 2 кадра
Идентификатор кодека : V_MPEG4/ISO/AVC
Продолжительность : 41 м.
Битрейт : 4237 Кбит/сек
Ширина : 1280 пикселей
Высота : 720 пикселей
Соотношение сторон : 16:9
Режим частоты кадров : Постоянный
Частота кадров : 25,000 кадров/сек
Цветовое пространство : YUV
Субдискретизация насыщенности : 4:2:0
Битовая глубина : 8 бит
Тип развёртки : Прогрессивная
Бит/(Пиксели*Кадры) : 0.184
Размер потока : 1,22 Гбайт (86%)
Язык : English
Default : Да
Forced : Нет
Основные цвета : BT.709
Характеристики трансфера : BT.709
Коэффициенты матрицы : BT.709
Аудио #1
Идентификатор : 2
Формат : AC-3
Формат/Информация : Audio Coding 3
Расширение режима : CM (complete main)
Параметр Endianness формата : Big
Идентификатор кодека : A_AC3
Продолжительность : 41 м.
Вид битрейта : Постоянный
Битрейт : 192 Кбит/сек
Каналы : 2 канала
Расположение каналов : Front: L R
Частота : 48,0 КГц
Битовая глубина : 16 бит
Метод сжатия : С потерями
Размер потока : 56,7 Мбайт (4%)
Язык : Russian
Default : Да
Forced : Нет
Аудио #2
Идентификатор : 3
Формат : AC-3
Формат/Информация : Audio Coding 3
Расширение режима : CM (complete main)
Параметр Endianness формата : Big
Идентификатор кодека : A_AC3
Продолжительность : 41 м.
Вид битрейта : Постоянный
Битрейт : 384 Кбит/сек
Каналы : 6 каналов
Расположение каналов : Front: L C R, Side: L R, LFE
Частота : 48,0 КГц
Битовая глубина : 16 бит
Метод сжатия : С потерями
Размер потока : 113 Мбайт (8%)
Язык : English
Default : Нет
Forced : Нет
-
-Скриншоты:
-
-
-
1. Открыть торрент
2. Снять галки с тех файлов торрента, которые мы не хотим закачивать. Оставляем только на нужных нам файлах (файле).
3. Нажать О.К.
В клиенте utorrent
Инструкция
1) Открыть торрент

2) Снять галки с тех файлов торрента, которые мы не хотим закачивать:
* либо вручную, снимая с каждого файла галку( скрин №1)
* либо, нажав кнопку "Снять метки (Select None)", сняв сразу со всех файлов(скрин №2)
№1

№2

Оставляем только на нужных нам файлах (файле).

3)Нажать О.К
-Добавлена восьмая, заключительная, серия первого сезона
Download / Скачать

Хотите скачать бесплатно? Зарегистрируйтесь на сайте (ссылка на регистрацию). Pirat.ca - самый быстрый торрент трекер в рунете!

Как скачивать  ·   Что такое торрент  ·   Рейтинг и ограничения



Последний раз редактировалось: kugesan (2015-05-09 15:29), всего редактировалось 21 раз(а)

CHARLI2236

1096

Пост 25-Июл-2013 18:21 (спустя 1 год 3 месяца)

[Q] 

2

_________________
[Профиль]  [ЛС] 

Андря

8410

Пост 20-Апр-2015 15:06 (спустя 1 год 8 месяцев)

[Q] 

в натуре "воскрешение"
три года ждали.

_________________
Като Тешекика
[Профиль]  [ЛС] 

jeck123

Морской Волк

Пост 01-Май-2015 20:46 (спустя 11 дней)

[Q] 

блин описание заинтриговало. БУДУ смотреть че да как.Спасибо нажал надеюся не разочаруюся
[Профиль]  [ЛС] 

kugesan ®

56686

Пост 01-Май-2015 21:03 (спустя 16 минут)

[Q] 

Приятного просмотра!!!

_________________

В мире две бесконечности: вселенная и человеческая глупость - Альберт Эйнштен
«Можно вытащить человека из грязи, но нельзя вытащить грязь из человека»!
[Профиль]  [ЛС] 

Vikingb

Штурман

Пост 01-Май-2015 21:23 (спустя 20 минут)

[Q] 

Раздача есть?

_________________
[Профиль]  [ЛС] 

kugesan ®

56686

Пост 01-Май-2015 23:43 (спустя 2 часа 19 минут)

[Q] 

673727Сорри, но раздача будет немного позже.

_________________

В мире две бесконечности: вселенная и человеческая глупость - Альберт Эйнштен
«Можно вытащить человека из грязи, но нельзя вытащить грязь из человека»!
[Профиль]  [ЛС] 

kugesan ®

56686

Пост 09-Май-2015 14:59 (спустя 7 дней)

[Q] 

Добавлена восьмая, заключительная, серия первого сезона

_________________

В мире две бесконечности: вселенная и человеческая глупость - Альберт Эйнштен
«Можно вытащить человека из грязи, но нельзя вытащить грязь из человека»!
[Профиль]  [ЛС] 

ZAMOK

Корсар

Пост 09-Май-2015 18:30 (спустя 3 часа)

[Q] 

Спасибо!!!
Ку три раза

_________________
Не бойся того,с чем не сталкивался.
[Профиль]  [ЛС] 

kugesan ®

56686

Пост 09-Май-2015 23:07 (спустя 4 часа)

[Q] 

Приятного просмотра!!!

_________________

В мире две бесконечности: вселенная и человеческая глупость - Альберт Эйнштен
«Можно вытащить человека из грязи, но нельзя вытащить грязь из человека»!
[Профиль]  [ЛС] 

a_barat

Гроза морей

3249

Пост 10-Май-2015 21:51 (спустя 22 часа)

[Q] 

Буду качать, посмотим, че за возрождения...

_________________
This message represents an official view of the voices in my head af
[Профиль]  [ЛС] 
Показать сообщения:    
Ответить на тему

Текущее время: Сегодня 22:06

Часовой пояс: GMT + 4



Вы не можете начинать темы
Вы не можете отвечать на сообщения
Вы не можете редактировать свои сообщения
Вы не можете удалять свои сообщения
Вы не можете голосовать в опросах
Вы не можете прикреплять файлы к сообщениям
Вы не можете скачивать файлы

▼ Вниз