ML
     
  Уважаемый Гость!
Вы можете поддержать проект и зарегистрироваться у наших партнеров - онлайн-стратегия MyLands. При регистрации в игре Вы получите код, который сможете активировать после регистрации на pirat.ca и получить 1000 дублонов.

Ваш код:
0fcd44bd35319f69313aa6e53b31c51cbff1c942
 
     

The 4400 (Сезон: 1 / Серии: 1-6 из 6) (Ив Симоно/Yves Simoneau) [2004 г., фантастика, триллер, драма, детектив, HDTVRip, ] MVO (LostFilm)

Ответить на тему
 
Автор
Сообщение

Пост 28-Мар-2012 19:32

[Q] 

$ieJOKER

Гроза морей

The 4400
(Сезон: 1 / Серии: 1-6 из 6)
Год выпуска: 2004
Мировая премьера: 11 июля 2004
Российская премьера: 11 июля 2005
Дата выхода DVD: 22 июня 2010, «Юниверсал Пикчерс Рус»
Производство: США CBS Paramount Network Television
Жанр: фантастика, триллер, драма, детектив
Продолжительность серии: 43 мин.
Перевод: Профессиональный (одноголосый, закадровый) [LostFilm]
Оригинальный аудиопоток: английский
Субтитры: отсутствуют
Режиссер: Ив Симоно/Yves Simoneau
В ролях
  • Агент ФБР Том Болдуин — Джоэль Гретш
  • Агент ФБР Диана Скорис — Жаклин Маккензи
  • Ричард Тайлер, бывший летчик — Махершалалхасбаз Али
  • Лили Мур Тайлер, бывшая молодая мать — Лора Аллен
  • Шон Фаррелл, племянник агента Болдуина — Патрик Флугер
  • Изабэль Тайлер — Мегалин Эчикануок
  • Майя Скорис, девочка — Кончита Кэмпбелл
  • Нина Джарвис — Саманта Феррис
  • Алана Марева — Карина Ломбард
  • Дэннис Райланд, начальник агента Болдуина — Питер Койот
  • Джордан Кольер — Билли Кэмпбелл
    Описание
    4400 человек, пропавших без вести в разные годы 20 века, неожиданно возвращаются на землю, оставшись такими же, как они были в день исчезновения. Обеспокоенные власти начинают расследование, чтобы выяснить, где же были эти люди и почему их вернули обратно. Очень скоро становится понятно, что их появление может изменить мир самым непредсказуемым образом.
    IMDB , КиноПоиск
    The 4400 Сезон: 1 (LostFilm)
    The 4400 Сезон: 2 (LostFilm)
    The 4400 Сезон: 3 (LostFilm)
    The 4400 Сезон: 4 (LostFilm)
    Источник/Качество: HDTVRip
    Формат: AVI
    Видео кодек: MPEG-4 Visual
    Аудио кодек: AC3
    Видео: 576 x 320 (16:9) 1 106 Kbps 23.976 fps
    Аудио: 448 Kbps 6 channels 48.0 KHz
    Имя файла: The 4400 - 1x05 - Trial By Fire.avi
    Формат файла: .avi (AVI)
    Размер файла: 477.33 MB
    Длительность: 42mn 41s
    Навигация по главам: Нет
    Bitrate (все потоки): 1 563 Kbps
    ...при помощи: VirtualDubMod 1.5.10.1 (build 2366/release)
    ...с использованием: VirtualDubMod build 2366/release
    Название: The 4400 - 1x05 - Trial By Fire
    Тип потока: Видео
    Длительность: 00:42:41
    Кодек: MPEG-4 Visual
    Кодек/ID: DX50
    Размеры изображения: 576 x 320 (16:9)
    Частота кадров: 23.976 fps
    Размер потока: 338 MiB (71%)
    Битрейт: 1 106 Kbps
    Цветовое пространство: YUV
    Тип развёртки: Progressive
    Bits/(Pixel*Frame): 0.250
    Глубина пикселя: 8 bits
    Библиотека кодирования: DivX 5.2.1 (WaffleDay) (UTC 2004-09-08)
    Тип потока: Звук #1
    Длительность: 00:42:41.103
    Кодек: AC-3
    Кодек/ID: 2000
    Частота дискретизации: 48.0 KHz
    Каналы: 6 channels
    Каналы/позиция: Front: L C R, Side: L R, LFE
    Битрейт: 448 Kbps
    Тип битрейта: Constant
    Размер потока: 137 MiB (29%)
    Download / Скачать

    Хотите скачать бесплатно? Зарегистрируйтесь на сайте (ссылка на регистрацию). Pirat.ca - самый быстрый торрент трекер в рунете!

    Как скачивать  ·   Что такое торрент  ·   Рейтинг и ограничения



  • Последний раз редактировалось: $ieJOKER (2012-03-29 05:02), всего редактировалось 1 раз

    Пост 28-Мар-2012 20:50 (спустя 1 час 18 минут)

    Топик был перенесен из форума Сериалы в форум Зарубежные сериалы

    gEmOkPaT
     

    TopIIeDa

    Штурман

    Пост 30-Мар-2012 16:19 (спустя 1 день 20 часов)

    [Q] 

    [Профиль]  [ЛС] 

    koks

    Корсар

    168

    Пост 03-Апр-2012 03:37 (спустя 3 дня)

    [Q] 


    _________________
    [Профиль]  [ЛС] 

    FreeDes

    Штурман

    Пост 11-Май-2012 20:57 (спустя 1 месяц 8 дней)

    [Q] 

    сериал СУПЕРСКИЙ... хотелось бы отметить выход этого сериала - 2004 год... это означает, что сериал "Герои" (2006 г.) это просто плагиат, на этот классный фантастический сериал!!! качать ВСЕМ!!! смотреть ВСЕМ!!! :)
    [Профиль]  [ЛС] 

    FreeDes

    Штурман

    Пост 12-Май-2012 03:55 (спустя 6 часов)

    [Q] 

    хтонить, плз станьте на раздачу.... хочу дочке показать сериал.... блин... на всяком говне, раздающих полно, а тута нема :(
    [Профиль]  [ЛС] 

    mrdim-CHEHOV

    Флибустьер

    Пост 09-Фев-2014 21:11 (спустя 1 год 8 месяцев)

    [Q] 

    Раздающему респект! глянем...говорят лучше героев вроде =) оценим... aa

    _________________
    Все будет не так, как мы решим. Все будет тогда, когда мы решимся.
    [Профиль]  [ЛС] 

    $ieJOKER ®

    Гроза морей

    2333

    Пост 10-Фев-2014 05:39 (спустя 8 часов)

    [Q] 

    490965глянем...говорят лучше героев вроде =) оценим...
    не лучше и не хуже, своеобразный... интересный...

    _________________
    Раздачи веду до первых сидов.
    [Профиль]  [ЛС] 

    lelik1973

    Шкипер

    2

    Пост 18-Янв-2015 23:19 (спустя 11 месяцев 8 дней)

    [Q] 

    как скачаю, постою на раздаче
    [Профиль]  [ЛС] 
    Показать сообщения:    
    Ответить на тему

    Текущее время: Сегодня 02:08

    Часовой пояс: GMT + 4



    Вы не можете начинать темы
    Вы не можете отвечать на сообщения
    Вы не можете редактировать свои сообщения
    Вы не можете удалять свои сообщения
    Вы не можете голосовать в опросах
    Вы не можете прикреплять файлы к сообщениям
    Вы не можете скачивать файлы

    ▼ Вниз